<?xml version="1.0" standalone="no"?>
<!DOCTYPE svg PUBLIC "-//W3C//DTD SVG 1.1//EN" "http://www.w3.org/Graphics/SVG/1.1/DTD/svg11.dtd">
<svg xmlns="http://www.w3.org/2000/svg">
<defs >
<font id="RedHatDisplay" horiz-adv-x="526" ><font-face
    font-family="Red Hat Display"
    units-per-em="1000"
    panose-1="2 1 3 3 4 2 1 6 3 3"
    ascent="1018"
    descent="-305"
    alphabetic="0" />
<glyph unicode=" " horiz-adv-x="201" />
<glyph unicode="!" horiz-adv-x="241" d="M68 210L51 705H190L173 210H68ZM120 -10Q87 -10 63 14T39 71Q39 105 63 129T120 153Q154 153 178 129T202 71Q202 38 178 14T120 -10Z" />
<glyph unicode="&quot;" horiz-adv-x="435" d="M76 425L59 705H192L176 425H76ZM261 425L244 705H377L361 425H261Z" />
<glyph unicode="#" horiz-adv-x="738" d="M70 0L126 194H29V292H154L187 408H79V506H215L270 700H393L338 506H489L545 700H667L612 506H709V408H584L551 292H659V194H523L467 0H345L401 194H249L193 0H70ZM277 292H428L462 408H310L277 292Z" />
<glyph unicode="$" horiz-adv-x="601" d="M257 -66V20Q184 26 120 53T6 127L77 224Q156 149 257 133V294L203 305Q105 323 63 365T21 485Q21 545 49 589T131 658T257 685V768H324V682Q385 676 445 656T556 603L498 498Q451 526 408 543T324 567V408L377 399Q482
379 528 338T575 222Q575 163 545 119T458 48T324 18V-66H257ZM257 416V572Q208 570 178 550T147 496Q147 472 156 457T187 432T244 417L257 416ZM324 128Q378 132 410 153T443 210Q443 233 435 247T403 270T338 285L324 288V128Z" />
<glyph unicode="%" horiz-adv-x="793" d="M182 345Q109 345 66 394T22 526Q22 606 66 656T182 706Q253 706 297 656T341 526Q341 444 298 395T182 345ZM182 418Q218 418 238 446T259 526Q259 575 238 604T182 633Q146 633 126 604T104 526Q105 475 125 447T182
418ZM143 0L539 700H641L245 0H143ZM612 -5Q539 -5 496 44T452 176Q452 256 496 306T612 356Q683 356 727 306T771 176Q771 94 728 45T612 -5ZM612 68Q648 68 668 96T689 176Q689 225 668 254T612 283Q576 283 556 254T534 176Q535 125 555 97T612 68Z" />
<glyph unicode="&amp;" horiz-adv-x="684" d="M271 -11Q198 -11 143 14T56 84T25 189Q25 231 38 264T80 325T160 382Q128 423 115 458T102 535Q102 585 127 625T196 688T297 711Q352 711 394 690T462 631T487 546Q487 500 463 463T388 394L337 363Q367 332 401
299T471 232Q489 265 502 305T526 390L644 371Q629 305 608 251T559 155Q585 133 608 115T659 76L577 -21Q554 -2 529 17T478 58Q436 24 384 7T271 -11ZM271 441L312 465Q339 482 351 500T363 542Q363 571 343 590T294 610Q264 610 245 590T225 537Q225 515 235
494T271 441ZM281 97Q312 97 340 106T391 134Q346 175 305 217T226 301Q198 285 182 270T158 237T151 199Q151 152 186 125T281 97Z" />
<glyph unicode="&apos;" horiz-adv-x="251" d="M76 425L59 705H192L176 425H76Z" />
<glyph unicode="(" horiz-adv-x="412" d="M312 -219Q187 -145 120 -25T53 248Q53 401 120 521T312 714L388 629Q287 566 234 469T180 248Q180 124 233 27T388 -133L312 -219Z" />
<glyph unicode=")" horiz-adv-x="412" d="M100 714Q225 640 292 520T359 247Q359 94 292 -26T100 -219L24 -134Q125 -71 178 26T232 247Q232 371 179 468T24 628L100 714Z" />
<glyph unicode="*" horiz-adv-x="475" d="M194 316L196 432L91 367L43 442L156 508L43 575L92 649L196 583L194 700H283L281 584L385 649L434 575L321 508L434 442L384 367L281 431L283 316H194Z" />
<glyph unicode="+" horiz-adv-x="600" d="M247 129V305H83V408H247V584H353V408H517V305H353V129H247Z" />
<glyph unicode="," horiz-adv-x="250" d="M3 -151L71 112H213L106 -151H3Z" />
<glyph unicode="-" horiz-adv-x="458" d="M41 227V343H417V227H41Z" />
<glyph unicode="." horiz-adv-x="250" d="M125 -10Q92 -10 68 14T44 71Q44 105 68 129T125 153Q158 153 182 129T206 71Q206 38 182 14T125 -10Z" />
<glyph unicode="/" horiz-adv-x="512" d="M-57 -208L350 700H482L75 -208H-57Z" />
<glyph unicode="0" horiz-adv-x="685" d="M342 -11Q251 -11 182 34T74 161T35 350Q35 458 73 539T181 665T342 711Q434 711 503 666T611 539T650 350Q650 243 612 162T504 35T342 -11ZM342 108Q396 108 435 137T495 221T517 350Q517 425 496 479T435 563T342 592Q289
592 250 563T190 480T168 350Q168 276 189 221T250 137T342 108Z" />
<glyph unicode="1" horiz-adv-x="349" d="M158 0V561L21 504V624L208 700H295V0H158Z" />
<glyph unicode="2" horiz-adv-x="573" d="M305 0V94L597 390Q618 412 630 431T648 468T654 506Q654 545 622 571T539 597Q491 597 450 578T360 511L286 601Q345 656 409 683T543 711Q614 711 668 686T752 617T782 514Q782 480 773 450T742 390T686 324L474 111L793
112V0H305Z" />
<glyph unicode="3" horiz-adv-x="616" d="M299 -11Q218 -11 149 17T32 98L120 180Q160 137 199 121T297 104Q339 104 370 116T419 152T437 205Q437 233 423 253T385 284T328 296H240V404H316Q363 404 390 428T417 496Q417 524 401 546T358 582T295 595Q243 595
206 577T127 513L38 595Q87 650 155 680T300 711Q373 711 429 686T517 615T549 512Q549 456 512 413T416 352Q486 338 527 296T569 195Q569 136 534 89T439 16T299 -11Z" />
<glyph unicode="4" horiz-adv-x="673" d="M422 0V164H27V274L401 700H559V279H645V164H559V0H422ZM186 279H422V546L186 279Z" />
<glyph unicode="5" horiz-adv-x="603" d="M285 -11Q140 -11 34 83L112 174Q157 136 199 119T291 102Q332 102 362 117T409 159T427 222Q427 273 388 306T285 339Q254 339 223 330T159 303L66 331L82 700H523V588H197L189 411Q226 429 259 435T326 441Q397 441
449 415T531 340T560 228Q560 157 526 103T429 19T285 -11Z" />
<glyph unicode="6" horiz-adv-x="636" d="M341 -11Q252 -11 185 33T81 154T43 335Q43 448 84 532T200 664T375 711Q430 711 484 693T574 643L500 549Q471 572 438 583T365 594Q304 594 261 563T196 475T172 334Q207 382 256 408T359 435Q428 435 481 408T564 332T594
221Q594 155 561 103T471 20T341 -11ZM337 332Q291 332 251 313T179 259Q189 211 210 176T264 121T335 102Q372 102 401 117T448 158T465 218Q465 252 449 277T405 317T337 332Z" />
<glyph unicode="7" horiz-adv-x="600" d="M361 0L675 585H283V700H816V602L517 0H361Z" />
<glyph unicode="8" horiz-adv-x="633" d="M314 -11Q236 -11 176 15T82 88T48 195Q48 234 65 267T115 325T189 362Q136 381 103 422T70 514Q70 570 102 614T189 685T314 711Q384 711 439 685T526 615T558 514Q558 463 525 422T439 362Q502 343 541 299T580 195Q580
135 547 89T453 16T314 -11ZM314 408Q347 408 373 420T415 455T430 505Q430 533 415 555T374 590T314 603Q281 603 255 591T213 556T198 505Q198 477 213 455T254 421T314 408ZM314 98Q354 98 384 111T431 149T448 204Q448 235 431 259T384 297T314 311Q275 311
245 297T197 259T180 204Q180 174 197 150T244 112T314 98Z" />
<glyph unicode="9" horiz-adv-x="636" d="M295 711Q384 711 451 668T556 546T594 365Q594 253 553 168T436 36T261 -11Q207 -11 153 7T62 57L136 152Q165 129 198 118T271 107Q333 107 375 137T440 226T464 367Q429 319 381 293T277 266Q209 266 156 293T73 368T43
479Q43 546 75 598T165 680T295 711ZM299 368Q345 368 385 387T457 441Q448 489 426 524T373 579T301 599Q264 599 235 584T188 543T171 482Q171 449 187 423T233 383T299 368Z" />
<glyph unicode=":" horiz-adv-x="250" d="M125 -10Q92 -10 68 14T44 71Q44 105 68 129T125 153Q158 153 182 129T206 71Q206 38 182 14T125 -10ZM125 368Q92 368 68 392T44 449Q44 483 68 507T125 531Q158 531 182 507T206 449Q206 416 182 392T125 368Z" />
<glyph unicode=";" horiz-adv-x="250" d="M137 368Q104 368 80 392T56 449Q56 483 80 507T137 531Q170 531 194 507T218 449Q218 416 194 392T137 368ZM253 -151L321 112H463L356 -151H253Z" />
<glyph unicode="&lt;" horiz-adv-x="600" d="M419 60L76 348L421 635L490 556L237 349L490 142L419 60Z" />
<glyph unicode="=" horiz-adv-x="600" d="M83 462V565H517V462H83ZM83 397V500H517V397H83Z" />
<glyph unicode="&gt;" horiz-adv-x="600" d="M181 636L524 348L179 61L110 140L363 347L110 554L181 636Z" />
<glyph unicode="?" d="M179 213Q177 259 183 291T207 348T256 397L308 434Q339 457 352 476T366 517Q366 540 352 557T314 585T259 596Q214 596 176 573T118 511L8 557Q30 605 68 639T156 692T264 711Q332 711 385 687T469 620T500 524Q500 488 489 460T450 404T376
345L349 326Q317 305 305 279T294 213H179ZM237 -10Q204 -10 180 14T156 71Q156 105 180 129T237 153Q270 153 294 129T318 71Q318 38 294 14T237 -10Z" />
<glyph unicode="@" horiz-adv-x="787" d="M411 -144Q330 -144 262 -118T144 -45T67 67T39 207Q39 287 67 355T145 475T263 554T411 582Q483 582 544 559T652 494T724 397T750 278Q750 210 726 158T658 77T558 47Q484 47 454 88Q432 68 405 58T350 47Q309 47 276
68T223 124T204 203Q204 255 228 296T292 362T383 387Q436 387 474 355L478 374H575L532 168Q527 143 538 130T573 116Q603 116 627 136T664 191T677 271Q677 343 642 399T546 488T408 521Q346 521 292 498T197 433T134 335T111 213Q111 127 149 62T254 -40T410
-77Q501 -77 574 -42L600 -100Q553 -122 507 -133T411 -144ZM373 127Q409 127 436 152Q437 159 437 166T440 182L457 271Q445 288 428 296T386 305Q363 305 343 293T310 259T298 211Q298 174 319 151T373 127Z" />
<glyph unicode="A" horiz-adv-x="732" d="M-4 0L284 700H451L736 0H579L508 184H219L147 0H-4ZM264 300H464L364 558L264 300Z" />
<glyph unicode="B" horiz-adv-x="691" d="M63 0V700H392Q463 700 516 676T599 609T629 508Q629 462 606 424T542 361Q593 337 623 296T653 203Q653 143 623 97T537 26T408 0H63ZM208 414H383Q430 414 457 436T485 497Q485 535 458 557T383 580H208V414ZM208 120H397Q447
120 477 144T507 210Q507 252 477 276T397 301H208V120Z" />
<glyph unicode="C" horiz-adv-x="718" d="M408 -10Q330 -10 262 17T144 94T65 208T36 350Q36 427 64 492T144 607T262 683T408 711Q466 711 520 695T620 650T700 580L602 483Q564 530 515 554T408 578Q361 578 320 561T249 513T202 441T185 350Q185 302 202 261T250
189T322 141T413 124Q468 124 516 147T601 213L696 119Q663 79 617 50T518 6T408 -10Z" />
<glyph unicode="D" horiz-adv-x="738" d="M208 129H330Q377 129 417 145T488 192T535 262T552 349Q552 396 535 436T488 507T418 554T330 571H208V129ZM63 0V700H332Q411 700 478 674T595 599T673 487T702 349Q702 274 674 211T596 101T478 27T332 0H63Z" />
<glyph unicode="E" horiz-adv-x="645" d="M63 0V700H601V574H208V414H467V292H208V126H605V0H63Z" />
<glyph unicode="F" horiz-adv-x="639" d="M63 0V700H604V574H208V409H471V287H208V0H63Z" />
<glyph unicode="G" horiz-adv-x="794" d="M407 -11Q329 -11 262 16T144 93T65 208T36 350Q36 426 64 491T143 606T260 683T405 711Q492 711 569 677T696 580L595 487Q559 532 510 555T405 578Q358 578 318 561T248 513T202 441T185 350Q185 301 202 259T249 187T320
139T409 121Q459 121 499 139T566 191T603 267H396V393H758V349Q758 271 732 206T658 92T547 16T407 -11Z" />
<glyph unicode="H" horiz-adv-x="739" d="M63 0V700H208V418H530V700H675V0H530V287H208V0H63Z" />
<glyph unicode="I" horiz-adv-x="272" d="M63 0V700H208V0H63Z" />
<glyph unicode="J" horiz-adv-x="641" d="M300 -10Q195 -10 122 43T17 195L151 246Q173 182 209 152T300 122Q365 122 404 164T444 276V700H589V272Q589 187 553 124T452 25T300 -10Z" />
<glyph unicode="K" horiz-adv-x="697" d="M63 0V700H208V387L514 700H691L351 367L707 0H513L208 325V0H63Z" />
<glyph unicode="L" horiz-adv-x="628" d="M63 0V700H208V128H591V0H63Z" />
<glyph unicode="M" horiz-adv-x="882" d="M63 0V700H249L441 322L633 700H819V0H682V515L439 50L197 517V0H63Z" />
<glyph unicode="N" horiz-adv-x="749" d="M63 0V700H201L549 248V700H685V0H557L200 468V0H63Z" />
<glyph unicode="O" horiz-adv-x="813" d="M406 -11Q328 -11 261 16T144 93T65 208T36 350Q36 426 64 491T143 606T261 683T406 711Q484 711 551 684T669 607T748 492T776 350Q776 274 748 209T670 94T552 17T406 -11ZM406 122Q454 122 494 139T564 187T611 260T628
350Q628 399 611 440T564 512T494 560T406 578Q359 578 319 561T249 513T202 441T185 351Q185 302 202 260T249 188T319 140T406 122Z" />
<glyph unicode="P" horiz-adv-x="681" d="M63 0V700H414Q483 700 535 672T618 595T648 480Q648 418 618 369T535 292T414 264H208V0H63ZM208 384H398Q445 384 473 410T502 479Q502 523 474 549T398 575H208V384Z" />
<glyph unicode="Q" horiz-adv-x="813" d="M613 -34L566 24Q530 8 490 -1T406 -11Q328 -11 261 16T144 93T65 208T36 350Q36 426 64 491T143 606T261 683T406 711Q484 711 551 684T669 607T748 492T776 350Q776 275 748 210T670 95L740 8L613 -34ZM406 122Q426
122 443 125T477 136L402 230L528 272L580 208Q603 237 615 273T628 350Q628 399 611 440T564 512T494 560T406 578Q359 578 319 561T249 513T202 441T185 350Q185 302 202 260T248 188T318 140T406 122Z" />
<glyph unicode="R" horiz-adv-x="679" d="M63 0V700H405Q476 700 530 673T615 596T646 483Q646 416 609 365T510 289L665 0H503L366 268H208V0H63ZM208 387H392Q441 387 470 413T500 481Q500 523 471 549T392 575H208V387Z" />
<glyph unicode="S" horiz-adv-x="631" d="M313 -10Q228 -10 147 21T3 111L86 215Q147 161 203 137T323 113Q367 113 399 123T448 154T466 201Q466 237 440 256T351 287L212 311Q123 326 77 374T30 498Q30 563 63 611T158 684T305 710Q382 710 458 684T594 612L516
504Q406 588 295 588Q256 588 227 578T183 551T167 509Q167 477 190 460T267 433L399 411Q504 394 556 345T608 214Q608 146 572 96T470 18T313 -10Z" />
<glyph unicode="T" horiz-adv-x="652" d="M254 0V572H18V700H634V572H399V0H254Z" />
<glyph unicode="U" horiz-adv-x="725" d="M362 -10Q267 -10 198 28T90 136T52 302V700H197V302Q197 248 217 208T275 146T363 124Q413 124 450 145T507 207T528 302V700H672V302Q672 208 634 138T527 29T362 -10Z" />
<glyph unicode="V" horiz-adv-x="732" d="M280 0L-4 700H153L367 149L586 700H736L448 0H280Z" />
<glyph unicode="W" horiz-adv-x="944" d="M181 0L26 700H175L270 226L406 700H543L679 227L774 700H918L764 0H611L473 488L333 0H181Z" />
<glyph unicode="X" horiz-adv-x="700" d="M-3 0L264 362L11 700H184L350 470L515 700H682L433 362L703 0H530L347 254L164 0H-3Z" />
<glyph unicode="Y" horiz-adv-x="706" d="M280 0V268L-6 700H161L357 396L554 700H712L425 267V0H280Z" />
<glyph unicode="Z" horiz-adv-x="617" d="M21 0V99L407 574H24V700H596V601L210 126H600V0H21Z" />
<glyph unicode="[" horiz-adv-x="393" d="M56 -213V700H355V593H186V-106H355V-213H56Z" />
<glyph unicode="\" horiz-adv-x="520" d="M439 -208L31 700H169L577 -208H439Z" />
<glyph unicode="]" horiz-adv-x="393" d="M337 700V-213H38V-106H207V593H38V700H337Z" />
<glyph unicode="^" horiz-adv-x="582" d="M57 350L235 700H347L525 350H416L291 599L166 350H57Z" />
<glyph unicode="_" horiz-adv-x="494" d="M-1 -176V-80H495V-176H-1Z" />
<glyph unicode="`" horiz-adv-x="600" d="M273 608L138 738H296L384 608H273Z" />
<glyph unicode="a" horiz-adv-x="555" d="M220 -9Q164 -9 121 11T54 68T30 151Q30 226 86 267T242 309Q310 309 370 288V326Q370 371 342 394T260 417Q227 417 189 407T101 374L51 475Q113 503 169 517T283 531Q388 531 446 481T505 338V0H370V37Q338 13 301 2T220
-9ZM160 154Q160 124 186 107T255 89Q289 89 318 97T370 123V199Q345 209 318 214T260 219Q213 219 187 202T160 154Z" />
<glyph unicode="b" horiz-adv-x="631" d="M54 0V700L191 723V479Q253 528 337 528Q411 528 471 492T566 396T602 260Q602 185 566 125T469 29T333 -7Q294 -7 257 4T189 36V0H54ZM315 109Q358 109 392 129T447 183T467 260Q467 303 447 337T393 391T315 411Q277
411 246 399T191 361V158Q213 135 245 122T315 109Z" />
<glyph unicode="c" horiz-adv-x="532" d="M303 -10Q226 -10 164 25T66 122T30 260Q30 337 66 398T164 495T303 531Q365 531 421 507T519 438L435 349Q406 381 375 396T306 412Q266 412 235 392T185 338T166 260Q166 218 184 184T236 130T309 110Q344 110 374 124T433
168L515 82Q475 39 419 15T303 -10Z" />
<glyph unicode="d" horiz-adv-x="631" d="M295 -7Q221 -7 161 29T66 125T30 261Q30 336 65 396T162 492T299 528Q338 528 374 518T441 487V700L578 723V0H443V43Q379 -7 295 -7ZM317 110Q355 110 386 122T441 160V363Q418 386 386 399T317 412Q274 412 240 393T185
339T165 261Q165 218 185 184T239 130T317 110Z" />
<glyph unicode="e" horiz-adv-x="586" d="M309 -10Q231 -10 168 26T67 123T30 260Q30 336 65 397T162 494T298 530Q373 530 431 493T522 393T556 250V214H170Q179 183 199 158T250 119T316 105Q351 105 380 116T431 147L521 65Q473 26 423 8T309 -10ZM168 312H421Q414
343 396 366T352 403T295 417Q263 417 237 404T194 368T168 312Z" />
<glyph unicode="f" horiz-adv-x="431" d="M134 0V407H18V521H134V571Q134 659 185 705T332 752Q353 752 375 750T413 743V628Q394 632 380 634T349 636Q310 636 291 620T271 568V521H413V407H271V0H134Z" />
<glyph unicode="g" horiz-adv-x="627" d="M316 -214Q256 -214 200 -202T99 -166L147 -60Q190 -81 231 -91T313 -101Q374 -101 405 -75T437 3V44Q373 -3 294 -3Q220 -3 161 32T66 129T30 264Q30 338 65 398T162 493T298 529Q336 529 372 518T439 487V521H574V1Q574
-102 508 -158T316 -214ZM315 113Q353 113 384 125T437 161V365Q415 387 384 399T316 412Q273 412 239 393T185 340T165 264Q165 221 184 187T238 133T315 113Z" />
<glyph unicode="h" horiz-adv-x="593" d="M54 0V700L191 730V478Q250 531 337 531Q398 531 444 505T517 432T543 323V0H406V303Q406 354 377 383T298 413Q263 413 236 400T191 361V0H54Z" />
<glyph unicode="i" horiz-adv-x="244" d="M54 0V521H191V0H54ZM122 583Q90 583 67 606T44 661Q44 694 67 716T122 739Q155 739 177 717T200 661Q200 629 178 606T122 583Z" />
<glyph unicode="j" horiz-adv-x="244" d="M122 583Q90 583 67 606T44 661Q44 694 67 716T122 739Q155 739 177 717T200 661Q200 629 178 606T122 583ZM22 -214Q3 -214 -17 -212T-49 -205V-100Q-31 -104 -5 -104Q25 -104 39 -92T54 -51V521H191V-59Q191 -133 147
-173T22 -214Z" />
<glyph unicode="k" horiz-adv-x="568" d="M54 0V700L191 723V302L416 521H571L325 282L586 0H411L191 238V0H54Z" />
<glyph unicode="l" horiz-adv-x="244" d="M54 0V700L191 723V0H54Z" />
<glyph unicode="m" horiz-adv-x="905" d="M54 0V521H191V481Q247 531 327 531Q378 531 418 511T484 453Q516 491 559 511T656 531Q715 531 759 505T829 432T855 323V0H719V303Q719 354 692 383T620 413Q589 413 564 400T520 361Q521 352 522 343T523 323V0H386V303Q386
354 360 383T288 413Q257 413 233 401T191 365V0H54Z" />
<glyph unicode="n" horiz-adv-x="593" d="M54 0V521H191V478Q250 531 337 531Q398 531 444 505T517 432T543 323V0H406V303Q406 354 377 383T298 413Q263 413 236 400T191 361V0H54Z" />
<glyph unicode="o" horiz-adv-x="616" d="M308 -10Q230 -10 167 26T67 123T30 260Q30 336 66 397T166 495T308 531Q386 531 449 495T549 398T586 260Q586 184 550 123T450 26T308 -10ZM308 109Q349 109 381 129T433 183T453 260Q453 303 434 337T382 391T308 412Q268
412 235 392T183 337T164 260Q164 218 183 184T235 129T308 109Z" />
<glyph unicode="p" horiz-adv-x="631" d="M54 -204V521H189V478Q253 528 337 528Q411 528 471 492T566 396T602 260Q602 185 566 125T469 29T333 -7Q294 -7 258 3T191 34V-204H54ZM315 109Q358 109 392 129T447 183T467 260Q467 303 447 337T393 391T315 411Q277
411 246 399T191 361V158Q213 135 245 122T315 109Z" />
<glyph unicode="q" horiz-adv-x="631" d="M441 -204V41Q378 -7 295 -7Q221 -7 161 29T66 125T30 261Q30 336 65 396T162 492T299 528Q339 528 375 517T443 486V521H578V-204H441ZM317 110Q355 110 386 122T441 160V363Q418 386 386 399T317 412Q274 412 240 393T185
339T165 261Q165 218 185 184T239 130T317 110Z" />
<glyph unicode="r" horiz-adv-x="408" d="M54 0V521H191V463Q216 497 251 515T330 533Q368 532 387 521V401Q372 408 354 411T317 415Q277 415 244 395T191 338V0H54Z" />
<glyph unicode="s" horiz-adv-x="491" d="M249 -10Q177 -10 116 8T10 62L78 153Q123 123 164 108T247 93Q293 93 320 108T348 149Q348 169 333 181T283 198L183 213Q105 225 65 263T25 365Q25 416 51 452T126 509T242 530Q299 530 353 514T456 465L390 376Q347
403 308 415T229 427Q192 427 170 413T147 376Q147 355 163 343T218 326L317 311Q395 300 436 262T477 162Q477 112 447 74T366 13T249 -10Z" />
<glyph unicode="t" horiz-adv-x="424" d="M301 -8Q214 -8 170 31T125 147V407H18V521H125V654L262 685V521H411V407H262V175Q262 139 278 124T334 108Q354 108 370 110T407 120V7Q386 0 355 -4T301 -8Z" />
<glyph unicode="u" horiz-adv-x="593" d="M256 -10Q196 -10 150 16T77 90T50 198V521H187V218Q187 168 216 138T296 108Q330 108 357 121T403 160V521H540V0H403V42Q343 -10 256 -10Z" />
<glyph unicode="v" horiz-adv-x="580" d="M223 0L0 521H149L292 174L434 521H580L356 0H223Z" />
<glyph unicode="w" horiz-adv-x="772" d="M153 0L10 521H140L226 185L330 521H445L548 184L634 521H762L618 0H487L386 333L285 0H153Z" />
<glyph unicode="x" horiz-adv-x="555" d="M-2 0L198 265L3 521H162L277 366L391 521H545L353 267L557 0H397L274 166L151 0H-2Z" />
<glyph unicode="y" horiz-adv-x="577" d="M105 -215Q87 -215 71 -214T43 -210V-92Q63 -96 91 -96Q166 -96 195 -25L203 -5L0 521H151L281 166L428 521H576L336 -42Q309 -105 277 -143T204 -198T105 -215Z" />
<glyph unicode="z" horiz-adv-x="499" d="M27 0V97L289 406H29V521H464V424L202 115H471V0H27Z" />
<glyph unicode="{" horiz-adv-x="429" d="M290 -218Q223 -218 180 -191T124 -117T132 -10L166 81Q184 130 166 162T99 195H16V297H99Q147 297 165 329T166 411L132 502Q111 562 124 609T180 683T290 710Q316 710 340 706T389 693L369 595Q354 600 339 603T306
606Q267 605 252 577T252 507L289 407Q309 350 281 305T191 246Q253 232 281 187T289 85L252 -15Q237 -57 252 -85T306 -114Q323 -114 338 -111T369 -103L389 -201Q364 -210 340 -214T290 -218Z" />
<glyph unicode="|" horiz-adv-x="333" d="M105 -208V700H228V-208H105Z" />
<glyph unicode="}" horiz-adv-x="429" d="M139 711Q206 711 249 684T305 610T297 503L263 412Q245 363 263 331T330 298H413V196H330Q282 196 264 164T263 82L297 -9Q318 -69 305 -116T249 -190T139 -217Q113 -217 89 -213T40 -200L60 -102Q75 -107 90 -110T123
-113Q162 -112 177 -84T177 -14L140 86Q120 143 148 188T238 247Q176 261 148 306T140 408L177 508Q192 550 177 578T123 607Q106 607 91 604T60 596L40 694Q65 703 89 707T139 711Z" />
<glyph unicode="~" horiz-adv-x="594" d="M123 285L31 296Q40 378 76 422T171 466Q193 466 216 460T264 441L349 399Q370 389 384 385T408 380Q461 380 471 459L563 448Q554 366 517 322T422 278Q401 278 377 284T329 303L244 345Q221 356 209 360T185 364Q131
364 123 285Z" />
<glyph unicode="&#xa0;" horiz-adv-x="201" />
<glyph unicode="&#xa1;" horiz-adv-x="241" d="M173 287L190 -208H51L68 287H173ZM121 507Q154 507 178 483T202 426Q202 392 178 368T121 344Q87 344 63 368T39 426Q39 459 63 483T121 507Z" />
<glyph unicode="&#xa2;" horiz-adv-x="532" d="M272 -112V-8Q204 -1 149 36T62 131T30 260Q30 332 61 390T148 485T272 530V620H334V529Q388 523 436 500T519 438L435 349Q412 375 387 390T334 409V112Q361 116 386 130T433 168L515 82Q480 45 433 22T334 -8V-112H272ZM166
260Q166 224 179 194T217 143T272 115V407Q241 400 217 379T180 327T166 260Z" />
<glyph unicode="&#xa3;" horiz-adv-x="648" d="M471 -26Q454 -26 436 -24T398 -17L220 26Q210 28 200 29T182 30Q152 30 131 15T93 -36L-10 29Q18 80 54 107T138 139Q156 155 156 182Q156 184 156 188T153 201T148 231T137 286H40V375H120Q114 406 111 425T107
458T106 480Q106 550 135 601T219 681T348 710Q447 710 511 665T601 528L488 492Q471 544 438 571T353 598Q295 598 264 567T233 480Q233 473 234 463T239 433T249 375H438V286H268Q271 266 273 253T276 231T278 218T279 208Q279 157 250 128L414 89Q425 86 435
85T454 84Q510 84 540 143L640 83Q580 -26 471 -26Z" />
<glyph unicode="&#xa4;" horiz-adv-x="686" d="M94 45L27 111L122 207Q99 239 86 279T72 363Q72 408 85 447T122 519L27 617L93 683L191 585Q223 607 262 618T343 630Q386 630 425 618T496 584L594 682L659 617L563 520Q587 488 600 448T614 363Q614 319 601 279T563
206L660 110L595 44L496 142Q464 120 425 108T343 96Q301 96 262 108T190 142L94 45ZM343 211Q383 211 416 231T468 286T488 363Q488 406 469 440T416 494T343 515Q303 515 271 495T219 440T199 363Q199 321 218 287T270 232T343 211Z" />
<glyph unicode="&#xa5;" horiz-adv-x="710" d="M286 0V131H106V204H286V264H106V337H245L2 700H169L363 396L550 700H709L473 337H604V264H431V204H604V131H431V0H286Z" />
<glyph unicode="&#xa6;" horiz-adv-x="337" d="M105 288V700H232V288H105ZM105 -208V204H232V-208H105Z" />
<glyph unicode="&#xa7;" horiz-adv-x="579" d="M279 -54Q226 -54 175 -40T78 2L131 84Q216 34 281 35Q315 35 335 50T355 90Q355 110 342 123T296 148L190 183Q106 211 72 244T38 335Q38 381 64 415T134 467Q100 501 100 554Q100 625 155 667T301 710Q352 710
403 696T501 654L449 572Q365 621 299 621Q264 621 244 607T224 565Q224 546 238 533T284 508L388 473Q473 445 507 412T541 320Q541 274 516 240T445 187Q478 154 478 100Q478 31 424 -11T279 -54ZM357 239Q389 244 408 261T427 305Q427 328 411 344T358 373L240
410Q235 412 231 413T222 416Q189 412 171 395T152 350Q152 327 168 312T220 283L339 245Q343 244 348 243T357 239Z" />
<glyph unicode="&#xa8;" horiz-adv-x="600" d="M188 605Q158 605 137 625T116 677Q116 708 137 728T188 749Q219 749 239 729T260 677Q260 645 240 625T188 605ZM412 605Q382 605 361 625T340 677Q340 708 361 728T412 749Q443 749 463 729T484 677Q484 645 464
625T412 605Z" />
<glyph unicode="&#xa9;" horiz-adv-x="789" d="M402 161Q347 161 303 186T234 255T208 351Q208 405 233 448T303 516T402 541Q447 541 487 524T556 474L489 405Q470 428 450 437T405 447Q380 447 360 435T328 401T316 351Q316 324 328 303T360 269T406 256Q430
256 450 266T487 296L553 228Q524 196 485 179T402 161ZM394 -11Q319 -11 254 16T140 93T64 208T36 350Q36 426 63 491T140 606T254 683T394 711Q469 711 534 684T648 607T724 492T752 350Q752 274 725 209T649 94T535 17T394 -11ZM394 55Q454 55 506 77T598 141T660
235T683 350Q683 411 661 464T599 559T507 622T394 645Q334 645 282 623T191 559T129 465T107 350Q107 289 129 236T191 141T282 78T394 55Z" />
<glyph unicode="&#xaa;" horiz-adv-x="438" d="M172 304Q109 304 69 337T29 425Q29 480 71 511T190 543Q215 543 238 540T284 529V555Q284 620 203 620Q180 620 151 613T84 589L45 669Q92 690 135 700T222 711Q302 711 346 673T390 564V311H284V337Q236 304 172
304ZM201 381Q225 381 246 387T284 405V459Q265 467 246 470T204 473Q170 473 151 461T132 427Q132 406 150 394T201 381Z" />
<glyph unicode="&#xab;" horiz-adv-x="679" d="M261 0L19 261L261 521H401L165 262L404 0H261ZM508 0L266 261L508 521H648L412 262L651 0H508Z" />
<glyph unicode="&#xac;" horiz-adv-x="594" d="M431 0V240H59V343H537V0H431Z" />
<glyph unicode="&#xad;" horiz-adv-x="466" d="M41 227V343H417V227H41Z" />
<glyph unicode="&#xae;" horiz-adv-x="487" d="M243 306Q187 306 141 333T67 408T39 513Q39 571 66 617T140 691T243 719Q301 719 347 692T420 617T448 513Q448 455 421 408T347 334T243 306ZM243 351Q289 351 324 371T379 429T400 513Q400 560 380 596T324 654T243
675Q198 675 163 654T107 597T87 513Q87 466 107 430T162 372T243 351ZM171 420V608H256Q286 608 303 592T320 549Q320 532 312 518T287 496L331 420H279L244 486H218V420H171ZM247 571H218V520H246Q273 520 273 546Q273 558 267 564T247 571Z" />
<glyph unicode="&#xaf;" horiz-adv-x="600" d="M140 625V711H460V625H140Z" />
<glyph unicode="&#xb0;" horiz-adv-x="403" d="M201 414Q159 414 124 434T70 489T50 563Q50 603 69 637T124 691T201 711Q245 711 279 691T333 637T353 563Q353 523 333 489T279 435T201 414ZM201 486Q234 486 256 509T279 563Q279 595 257 617T201 639Q169 639
146 617T123 563Q123 532 146 509T201 486Z" />
<glyph unicode="&#xb1;" horiz-adv-x="600" d="M83 -1V101H517V-1H83ZM248 199V357H83V459H248V616H352V459H517V357H352V199H248Z" />
<glyph unicode="&#xb2;" horiz-adv-x="307" d="M27 350V410L168 531Q185 547 194 560T203 588Q203 608 188 620T148 633Q123 633 102 623T55 590L8 646Q40 674 76 689T151 705Q210 704 247 674T285 593Q285 563 270 537T220 482L150 420H288V350H27Z" />
<glyph unicode="&#xb3;" horiz-adv-x="329" d="M159 345Q116 345 78 360T15 402L72 454Q93 433 111 425T158 417Q187 417 203 428T220 456Q220 470 206 478T165 487H132V554H156Q181 554 196 565T211 595Q211 612 196 622T158 632Q132 632 115 624T75 592L18 644Q44
672 82 689T161 706Q221 706 259 678T296 605Q297 580 284 559T248 524Q275 514 290 495T306 449Q306 403 265 374T159 345Z" />
<glyph unicode="&#xb4;" horiz-adv-x="600" d="M219 608L309 738H465L330 608H219Z" />
<glyph unicode="&#xb5;" horiz-adv-x="615" d="M63 -204V521H200V210Q200 161 229 131T307 101Q342 101 369 116T415 163V521H552V0H415V85Q386 40 348 16T261 -9Q244 -9 229 -6T200 5V-204H63Z" />
<glyph unicode="&#xb6;" horiz-adv-x="700" d="M314 0V253H276Q203 253 147 281T59 358T27 473Q27 542 58 593T146 672T276 700H636V0H522V253H426V0H314ZM426 361H522V589H426V361ZM271 361H314V589H271Q216 589 183 558T149 476Q149 424 182 393T271 361Z" />
<glyph unicode="&#xb7;" horiz-adv-x="250" d="M125 205Q92 205 68 228T44 286Q44 319 68 343T125 367Q158 367 182 343T206 286Q206 252 182 229T125 205Z" />
<glyph unicode="&#xb8;" horiz-adv-x="600" d="M305 -236Q230 -236 180 -191L225 -143Q262 -172 303 -172Q329 -172 343 -162T358 -134Q358 -117 343 -107T303 -97H261L289 0H356L342 -46Q386 -49 411 -73T437 -135Q437 -178 399 -207T305 -236Z" />
<glyph unicode="&#xb9;" horiz-adv-x="195" d="M89 350V615L16 586V658L121 700H174V350H89Z" />
<glyph unicode="&#xba;" horiz-adv-x="483" d="M241 301Q183 301 135 328T59 402T31 506Q31 564 59 610T135 684T242 711Q300 711 347 684T423 611T452 506Q452 449 424 403T348 329T241 301ZM241 396Q270 396 294 410T331 450T345 506Q345 538 332 562T294 602T241
617Q212 617 189 602T151 562T137 506Q137 475 151 450T188 411T241 396Z" />
<glyph unicode="&#xbb;" horiz-adv-x="679" d="M418 521L660 260L418 0H278L514 259L275 521H418ZM170 521L412 260L170 0H30L266 259L27 521H170Z" />
<glyph unicode="&#xbc;" horiz-adv-x="665" d="M527 0V77H330V145L513 350H611V146H655V77H611V0H527ZM425 146H527V259L425 146ZM89 350V615L16 586V658L121 700H174V350H89ZM53 0L449 700H551L155 0H53Z" />
<glyph unicode="&#xbd;" horiz-adv-x="693" d="M89 350V615L16 586V658L121 700H174V350H89ZM53 0L449 700H551L155 0H53ZM413 0V60L554 181Q571 197 580 210T589 238Q589 258 574 270T534 283Q509 283 488 273T441 240L394 296Q426 324 462 339T537 355Q596 354
633 324T671 243Q671 213 656 187T606 132L536 70H674V0H413Z" />
<glyph unicode="&#xbe;" horiz-adv-x="759" d="M620 0V77H423V145L606 350H704V146H748V77H704V0H620ZM518 146H620V259L518 146ZM159 345Q116 345 78 360T15 402L72 454Q93 433 111 425T158 417Q187 417 203 428T220 456Q220 470 206 478T165 487H132V554H156Q181
554 196 565T211 595Q211 612 196 622T158 632Q132 632 115 624T75 592L18 644Q44 672 82 689T161 706Q221 706 259 678T296 605Q297 580 284 559T248 524Q275 514 290 495T306 449Q306 403 265 374T159 345ZM146 0L542 700H644L248 0H146Z" />
<glyph unicode="&#xbf;" d="M338 284Q340 238 334 206T310 149T261 100L209 63Q178 40 165 21T151 -20Q151 -43 165 -60T203 -88T258 -99Q303 -99 341 -76T399 -14L509 -60Q487 -108 449 -142T361 -195T253 -214Q185 -214 132 -190T48 -123T17 -27Q17 9 28 37T67
93T141 152L168 171Q200 192 212 218T223 284H338ZM280 507Q313 507 337 483T361 426Q361 392 337 368T280 344Q247 344 223 368T199 426Q199 459 223 483T280 507Z" />
<glyph unicode="&#xc0;" horiz-adv-x="732" d="M-4 0L284 700H451L736 0H579L508 184H219L147 0H-4ZM264 300H464L364 558L264 300ZM325 787L190 917H348L436 787H325Z" />
<glyph unicode="&#xc1;" horiz-adv-x="732" d="M-4 0L284 700H451L736 0H579L508 184H219L147 0H-4ZM264 300H464L364 558L264 300ZM285 787L375 917H531L396 787H285Z" />
<glyph unicode="&#xc2;" horiz-adv-x="732" d="M-4 0L284 700H451L736 0H579L508 184H219L147 0H-4ZM264 300H464L364 558L264 300ZM438 784L364 858L291 784H181L296 920H436L551 784H438Z" />
<glyph unicode="&#xc3;" horiz-adv-x="732" d="M-4 0L284 700H451L736 0H579L508 184H219L147 0H-4ZM264 300H464L364 558L264 300ZM256 776L172 794Q199 915 286 915Q314 915 340 903T391 878T433 865Q450 865 460 877T477 919L559 901Q547 839 519 809T446 779Q419
779 393 791T342 816T298 829Q282 829 272 817T256 776Z" />
<glyph unicode="&#xc4;" horiz-adv-x="732" d="M-4 0L284 700H451L736 0H579L508 184H219L147 0H-4ZM264 300H464L364 558L264 300ZM254 784Q224 784 203 804T182 856Q182 887 203 907T254 928Q285 928 305 908T326 856Q326 824 306 804T254 784ZM478 784Q448
784 427 804T406 856Q406 887 427 907T478 928Q509 928 529 908T550 856Q550 824 530 804T478 784Z" />
<glyph unicode="&#xc5;" horiz-adv-x="732" d="M-4 0L284 700H451L736 0H579L508 184H219L147 0H-4ZM264 300H464L364 558L264 300ZM366 764Q332 764 304 780T260 824T243 885Q243 917 259 944T304 988T366 1005Q400 1005 428 989T472 945T489 885Q489 852 473
825T428 781T366 764ZM366 822Q392 822 410 840T429 884Q429 911 411 929T366 947Q340 947 322 929T303 884Q303 858 321 840T366 822Z" />
<glyph unicode="&#xc6;" horiz-adv-x="982" d="M-4 0L284 700H942V574H505L567 414H814V292H614L679 126H942V0H579L508 184H219L147 0H-4ZM264 300H464L365 558L264 300Z" />
<glyph unicode="&#xc7;" horiz-adv-x="718" d="M389 -236Q315 -236 264 -191L309 -143Q347 -172 387 -172Q414 -172 428 -162T442 -134Q442 -117 428 -107T387 -97H345L371 -9Q299 -2 238 27T132 105T61 216T36 350Q36 427 64 492T144 607T262 683T408 711Q466
711 520 695T620 650T700 580L602 483Q564 530 515 554T408 578Q361 578 320 561T249 513T202 441T185 350Q185 302 202 261T250 189T322 141T413 124Q468 124 516 147T601 213L696 119Q650 65 582 31T437 -9L427 -46Q471 -49 496 -73T522 -135Q522 -178 484 -207T389
-236Z" />
<glyph unicode="&#xc8;" horiz-adv-x="645" d="M63 0V700H601V574H208V414H467V292H208V126H605V0H63ZM303 787L168 917H326L414 787H303Z" />
<glyph unicode="&#xc9;" horiz-adv-x="645" d="M63 0V700H601V574H208V414H467V292H208V126H605V0H63ZM263 787L353 917H509L374 787H263Z" />
<glyph unicode="&#xca;" horiz-adv-x="645" d="M63 0V700H601V574H208V414H467V292H208V126H605V0H63ZM416 784L342 858L269 784H159L274 920H414L529 784H416Z" />
<glyph unicode="&#xcb;" horiz-adv-x="645" d="M63 0V700H601V574H208V414H467V292H208V126H605V0H63ZM232 784Q202 784 181 804T160 856Q160 887 181 907T232 928Q263 928 283 908T304 856Q304 824 284 804T232 784ZM456 784Q426 784 405 804T384 856Q384 887
405 907T456 928Q487 928 507 908T528 856Q528 824 508 804T456 784Z" />
<glyph unicode="&#xcc;" horiz-adv-x="272" d="M63 0V700H208V0H63ZM95 787L-40 917H118L206 787H95Z" />
<glyph unicode="&#xcd;" horiz-adv-x="272" d="M63 0V700H208V0H63ZM55 787L145 917H301L166 787H55Z" />
<glyph unicode="&#xce;" horiz-adv-x="272" d="M63 0V700H208V0H63ZM208 784L134 858L61 784H-49L66 920H206L321 784H208Z" />
<glyph unicode="&#xcf;" horiz-adv-x="272" d="M63 0V700H208V0H63ZM24 784Q-6 784 -27 804T-48 856Q-48 887 -27 907T24 928Q55 928 75 908T96 856Q96 824 76 804T24 784ZM248 784Q218 784 197 804T176 856Q176 887 197 907T248 928Q279 928 299 908T320 856Q320
824 300 804T248 784Z" />
<glyph unicode="&#xd0;" horiz-adv-x="770" d="M95 0V293H17V408H95V700H364Q442 700 509 674T626 599T705 487T733 349Q733 274 705 211T627 101T510 27T364 0H95ZM240 129H362Q409 129 449 145T519 192T567 262T584 349Q584 396 567 436T520 507T449 554T362
571H240V408H405V293H240V129Z" />
<glyph unicode="&#xd1;" horiz-adv-x="749" d="M63 0V700H201L549 248V700H685V0H557L200 468V0H63ZM264 776L180 794Q207 915 294 915Q322 915 348 903T399 878T441 865Q458 865 468 877T485 919L567 901Q555 839 527 809T454 779Q427 779 401 791T350 816T306
829Q290 829 280 817T264 776Z" />
<glyph unicode="&#xd2;" horiz-adv-x="813" d="M406 -11Q328 -11 261 16T144 93T65 208T36 350Q36 426 64 491T143 606T261 683T406 711Q484 711 551 684T669 607T748 492T776 350Q776 274 748 209T670 94T552 17T406 -11ZM406 122Q454 122 494 139T564 187T611
260T628 350Q628 399 611 440T564 512T494 560T406 578Q359 578 319 561T249 513T202 441T185 351Q185 302 202 260T249 188T319 140T406 122ZM365 787L230 917H388L476 787H365Z" />
<glyph unicode="&#xd3;" horiz-adv-x="813" d="M406 -11Q328 -11 261 16T144 93T65 208T36 350Q36 426 64 491T143 606T261 683T406 711Q484 711 551 684T669 607T748 492T776 350Q776 274 748 209T670 94T552 17T406 -11ZM406 122Q454 122 494 139T564 187T611
260T628 350Q628 399 611 440T564 512T494 560T406 578Q359 578 319 561T249 513T202 441T185 351Q185 302 202 260T249 188T319 140T406 122ZM325 787L415 917H571L436 787H325Z" />
<glyph unicode="&#xd4;" horiz-adv-x="813" d="M406 -11Q328 -11 261 16T144 93T65 208T36 350Q36 426 64 491T143 606T261 683T406 711Q484 711 551 684T669 607T748 492T776 350Q776 274 748 209T670 94T552 17T406 -11ZM406 122Q454 122 494 139T564 187T611
260T628 350Q628 399 611 440T564 512T494 560T406 578Q359 578 319 561T249 513T202 441T185 351Q185 302 202 260T249 188T319 140T406 122ZM478 784L404 858L331 784H221L336 920H476L591 784H478Z" />
<glyph unicode="&#xd5;" horiz-adv-x="813" d="M406 -11Q328 -11 261 16T144 93T65 208T36 350Q36 426 64 491T143 606T261 683T406 711Q484 711 551 684T669 607T748 492T776 350Q776 274 748 209T670 94T552 17T406 -11ZM406 122Q454 122 494 139T564 187T611
260T628 350Q628 399 611 440T564 512T494 560T406 578Q359 578 319 561T249 513T202 441T185 351Q185 302 202 260T249 188T319 140T406 122ZM296 776L212 794Q239 915 326 915Q354 915 380 903T431 878T473 865Q490 865 500 877T517 919L599 901Q587 839 559
809T486 779Q459 779 433 791T382 816T338 829Q322 829 312 817T296 776Z" />
<glyph unicode="&#xd6;" horiz-adv-x="813" d="M406 -11Q328 -11 261 16T144 93T65 208T36 350Q36 426 64 491T143 606T261 683T406 711Q484 711 551 684T669 607T748 492T776 350Q776 274 748 209T670 94T552 17T406 -11ZM406 122Q454 122 494 139T564 187T611
260T628 350Q628 399 611 440T564 512T494 560T406 578Q359 578 319 561T249 513T202 441T185 351Q185 302 202 260T249 188T319 140T406 122ZM294 784Q264 784 243 804T222 856Q222 887 243 907T294 928Q325 928 345 908T366 856Q366 824 346 804T294 784ZM518
784Q488 784 467 804T446 856Q446 887 467 907T518 928Q549 928 569 908T590 856Q590 824 570 804T518 784Z" />
<glyph unicode="&#xd7;" horiz-adv-x="600" d="M158 141L96 206L237 358L95 511L158 578L301 425L443 577L505 512L362 360L505 207L442 140L299 292L158 141Z" />
<glyph unicode="&#xd8;" horiz-adv-x="813" d="M406 -11Q353 -11 304 3T212 42L177 0H49L134 103Q89 151 63 214T36 350Q36 426 64 491T143 606T261 683T406 711Q458 711 506 698T595 662L627 700H756L674 601Q722 553 749 489T776 350Q776 274 748 209T670 94T552
17T406 -11ZM227 215L506 554Q484 566 459 572T406 578Q359 578 319 561T249 513T202 441T185 350Q185 311 196 277T227 215ZM406 122Q454 122 494 139T564 187T611 260T628 350Q628 391 616 426T582 490L300 149Q323 136 350 129T406 122Z" />
<glyph unicode="&#xd9;" horiz-adv-x="725" d="M362 -10Q267 -10 198 28T90 136T52 302V700H197V302Q197 248 217 208T275 146T363 124Q413 124 450 145T507 207T528 302V700H672V302Q672 208 634 138T527 29T362 -10ZM321 787L186 917H344L432 787H321Z" />
<glyph unicode="&#xda;" horiz-adv-x="725" d="M362 -10Q267 -10 198 28T90 136T52 302V700H197V302Q197 248 217 208T275 146T363 124Q413 124 450 145T507 207T528 302V700H672V302Q672 208 634 138T527 29T362 -10ZM282 787L372 917H528L393 787H282Z" />
<glyph unicode="&#xdb;" horiz-adv-x="725" d="M362 -10Q267 -10 198 28T90 136T52 302V700H197V302Q197 248 217 208T275 146T363 124Q413 124 450 145T507 207T528 302V700H672V302Q672 208 634 138T527 29T362 -10ZM435 784L361 858L288 784H178L293 920H433L548
784H435Z" />
<glyph unicode="&#xdc;" horiz-adv-x="725" d="M362 -10Q267 -10 198 28T90 136T52 302V700H197V302Q197 248 217 208T275 146T363 124Q413 124 450 145T507 207T528 302V700H672V302Q672 208 634 138T527 29T362 -10ZM251 784Q221 784 200 804T179 856Q179 887
200 907T251 928Q282 928 302 908T323 856Q323 824 303 804T251 784ZM475 784Q445 784 424 804T403 856Q403 887 424 907T475 928Q506 928 526 908T547 856Q547 824 527 804T475 784Z" />
<glyph unicode="&#xdd;" horiz-adv-x="706" d="M280 0V268L-6 700H161L357 396L554 700H712L425 267V0H280ZM272 787L362 917H518L383 787H272Z" />
<glyph unicode="&#xde;" horiz-adv-x="678" d="M63 0V700H208V570H414Q481 570 533 542T616 463T646 348Q646 286 616 237T534 159T414 131H208V0H63ZM208 251H398Q427 251 450 263T486 298T499 348Q499 376 486 398T450 433T398 446H208V251Z" />
<glyph unicode="&#xdf;" horiz-adv-x="685" d="M470 -11Q345 -11 257 70L326 144Q391 83 465 83Q504 83 526 99T549 141Q549 165 535 179T485 204L400 233Q343 252 317 278T291 344Q291 379 308 402T350 442T400 472T443 502T460 542Q460 575 424 597T334 619Q264
619 227 581T190 468V0H54V471Q54 592 127 660T331 728Q410 728 469 708T561 650T593 561Q593 521 576 495T534 450T482 419T439 392T421 363Q421 349 431 340T469 320L549 293Q616 268 645 236T674 151Q674 77 619 33T470 -11Z" />
<glyph unicode="&#xe0;" horiz-adv-x="555" d="M220 -9Q164 -9 121 11T54 68T30 151Q30 226 86 267T242 309Q310 309 370 288V326Q370 371 342 394T260 417Q227 417 189 407T101 374L51 475Q113 503 169 517T283 531Q388 531 446 481T505 338V0H370V37Q338 13
301 2T220 -9ZM160 154Q160 124 186 107T255 89Q289 89 318 97T370 123V199Q345 209 318 214T260 219Q213 219 187 202T160 154ZM484 608L349 738H507L595 608H484Z" />
<glyph unicode="&#xe1;" horiz-adv-x="555" d="M220 -9Q164 -9 121 11T54 68T30 151Q30 226 86 267T242 309Q310 309 370 288V326Q370 371 342 394T260 417Q227 417 189 407T101 374L51 475Q113 503 169 517T283 531Q388 531 446 481T505 338V0H370V37Q338 13
301 2T220 -9ZM160 154Q160 124 186 107T255 89Q289 89 318 97T370 123V199Q345 209 318 214T260 219Q213 219 187 202T160 154ZM445 608L535 738H691L556 608H445Z" />
<glyph unicode="&#xe2;" horiz-adv-x="555" d="M220 -9Q164 -9 121 11T54 68T30 151Q30 226 86 267T242 309Q310 309 370 288V326Q370 371 342 394T260 417Q227 417 189 407T101 374L51 475Q113 503 169 517T283 531Q388 531 446 481T505 338V0H370V37Q338 13
301 2T220 -9ZM160 154Q160 124 186 107T255 89Q289 89 318 97T370 123V199Q345 209 318 214T260 219Q213 219 187 202T160 154ZM598 605L524 679L451 605H341L456 741H596L711 605H598Z" />
<glyph unicode="&#xe3;" horiz-adv-x="555" d="M220 -9Q164 -9 121 11T54 68T30 151Q30 226 86 267T242 309Q310 309 370 288V326Q370 371 342 394T260 417Q227 417 189 407T101 374L51 475Q113 503 169 517T283 531Q388 531 446 481T505 338V0H370V37Q338 13
301 2T220 -9ZM160 154Q160 124 186 107T255 89Q289 89 318 97T370 123V199Q345 209 318 214T260 219Q213 219 187 202T160 154ZM416 597L332 615Q359 736 446 736Q474 736 500 724T551 699T593 686Q610 686 620 698T637 740L719 722Q707 660 679 630T606 600Q579
600 553 612T502 637T458 650Q442 650 432 638T416 597Z" />
<glyph unicode="&#xe4;" horiz-adv-x="555" d="M220 -9Q164 -9 121 11T54 68T30 151Q30 226 86 267T242 309Q310 309 370 288V326Q370 371 342 394T260 417Q227 417 189 407T101 374L51 475Q113 503 169 517T283 531Q388 531 446 481T505 338V0H370V37Q338 13
301 2T220 -9ZM160 154Q160 124 186 107T255 89Q289 89 318 97T370 123V199Q345 209 318 214T260 219Q213 219 187 202T160 154ZM414 605Q384 605 363 625T342 677Q342 708 363 728T414 749Q445 749 465 729T486 677Q486 645 466 625T414 605ZM638 605Q608 605
587 625T566 677Q566 708 587 728T638 749Q669 749 689 729T710 677Q710 645 690 625T638 605Z" />
<glyph unicode="&#xe5;" horiz-adv-x="555" d="M220 -9Q164 -9 121 11T54 68T30 151Q30 226 86 267T242 309Q310 309 370 288V326Q370 371 342 394T260 417Q227 417 189 407T101 374L51 475Q113 503 169 517T283 531Q388 531 446 481T505 338V0H370V37Q338 13
301 2T220 -9ZM160 154Q160 124 186 107T255 89Q289 89 318 97T370 123V199Q345 209 318 214T260 219Q213 219 187 202T160 154ZM526 585Q492 585 464 601T420 645T403 706Q403 738 419 765T464 809T526 826Q560 826 588 810T632 766T649 706Q649 673 633 646T588
602T526 585ZM526 643Q552 643 570 661T589 705Q589 732 571 750T526 768Q500 768 482 750T463 705Q463 679 481 661T526 643Z" />
<glyph unicode="&#xe6;" horiz-adv-x="926" d="M220 -9Q165 -9 123 11T57 68T33 151Q33 226 89 267T243 309Q310 309 370 289V326Q370 371 342 394T260 417Q227 417 189 407T101 374L51 475Q113 503 169 517T283 531Q345 531 391 513T463 458Q497 492 541 511T638
530Q713 530 771 493T862 393T896 250V214H510Q519 183 539 158T590 119T656 105Q691 105 721 116T771 147L861 65Q813 26 763 8T650 -10Q586 -10 533 14T441 80Q394 34 341 13T220 -9ZM508 312H762Q754 343 736 366T692 403T635 417Q604 417 578 404T534 368T508
312ZM255 89Q295 89 329 104T394 148Q390 160 386 172T378 197Q351 208 322 213T261 219Q215 219 190 202T164 154Q164 124 188 107T255 89Z" />
<glyph unicode="&#xe7;" horiz-adv-x="532" d="M286 -236Q211 -236 160 -191L205 -143Q243 -172 283 -172Q310 -172 324 -162T338 -134Q338 -117 324 -107T283 -97H242L268 -7Q200 1 146 38T61 132T30 260Q30 337 66 398T164 495T303 531Q365 531 421 507T519
438L435 349Q406 381 375 396T306 412Q266 412 235 392T185 338T166 260Q166 218 184 184T236 130T309 110Q344 110 374 124T433 168L515 82Q480 45 433 22T334 -8L323 -46Q367 -49 392 -73T418 -135Q418 -178 380 -207T286 -236Z" />
<glyph unicode="&#xe8;" horiz-adv-x="586" d="M309 -10Q231 -10 168 26T67 123T30 260Q30 336 65 397T162 494T298 530Q373 530 431 493T522 393T556 250V214H170Q179 183 199 158T250 119T316 105Q351 105 380 116T431 147L521 65Q473 26 423 8T309 -10ZM168
312H421Q414 343 396 366T352 403T295 417Q263 417 237 404T194 368T168 312ZM511 608L376 738H534L622 608H511Z" />
<glyph unicode="&#xe9;" horiz-adv-x="586" d="M309 -10Q231 -10 168 26T67 123T30 260Q30 336 65 397T162 494T298 530Q373 530 431 493T522 393T556 250V214H170Q179 183 199 158T250 119T316 105Q351 105 380 116T431 147L521 65Q473 26 423 8T309 -10ZM168
312H421Q414 343 396 366T352 403T295 417Q263 417 237 404T194 368T168 312ZM471 608L561 738H717L582 608H471Z" />
<glyph unicode="&#xea;" horiz-adv-x="586" d="M309 -10Q231 -10 168 26T67 123T30 260Q30 336 65 397T162 494T298 530Q373 530 431 493T522 393T556 250V214H170Q179 183 199 158T250 119T316 105Q351 105 380 116T431 147L521 65Q473 26 423 8T309 -10ZM168
312H421Q414 343 396 366T352 403T295 417Q263 417 237 404T194 368T168 312ZM624 605L550 679L477 605H367L482 741H622L737 605H624Z" />
<glyph unicode="&#xeb;" horiz-adv-x="586" d="M309 -10Q231 -10 168 26T67 123T30 260Q30 336 65 397T162 494T298 530Q373 530 431 493T522 393T556 250V214H170Q179 183 199 158T250 119T316 105Q351 105 380 116T431 147L521 65Q473 26 423 8T309 -10ZM168
312H421Q414 343 396 366T352 403T295 417Q263 417 237 404T194 368T168 312ZM440 605Q410 605 389 625T368 677Q368 708 389 728T440 749Q471 749 491 729T512 677Q512 645 492 625T440 605ZM664 605Q634 605 613 625T592 677Q592 708 613 728T664 749Q695 749
715 729T736 677Q736 645 716 625T664 605Z" />
<glyph unicode="&#xec;" horiz-adv-x="244" d="M54 0V521H191V0H54ZM81 608L-54 738H104L192 608H81Z" />
<glyph unicode="&#xed;" horiz-adv-x="244" d="M54 0V521H191V0H54ZM41 608L131 738H287L152 608H41Z" />
<glyph unicode="&#xee;" horiz-adv-x="244" d="M54 0V521H191V0H54ZM194 605L120 679L47 605H-63L52 741H192L307 605H194Z" />
<glyph unicode="&#xef;" horiz-adv-x="244" d="M54 0V521H191V0H54ZM10 605Q-20 605 -41 625T-62 677Q-62 708 -41 728T10 749Q41 749 61 729T82 677Q82 645 62 625T10 605ZM234 605Q204 605 183 625T162 677Q162 708 183 728T234 749Q265 749 285 729T306 677Q306
645 286 625T234 605Z" />
<glyph unicode="&#xf0;" horiz-adv-x="597" d="M288 -9Q216 -9 157 25T64 116T30 246Q30 294 49 337T102 413T179 465T271 484Q316 484 351 471T413 430Q405 467 384 502T332 568L244 512L193 583L260 627Q242 639 222 649T178 668L248 760Q281 746 310 730T366
694L464 757L515 686L434 634Q496 569 529 488T562 312Q562 214 529 142T434 30T288 -9ZM292 111Q328 111 357 128T403 175T420 241Q420 278 403 307T357 353T292 370Q256 370 227 353T180 307T162 241Q162 205 179 176T226 129T292 111Z" />
<glyph unicode="&#xf1;" horiz-adv-x="593" d="M54 0V521H191V478Q250 531 337 531Q398 531 444 505T517 432T543 323V0H406V303Q406 354 377 383T298 413Q263 413 236 400T191 361V0H54ZM445 597L361 615Q388 736 475 736Q503 736 529 724T580 699T622 686Q639
686 649 698T666 740L748 722Q736 660 708 630T635 600Q608 600 582 612T531 637T487 650Q471 650 461 638T445 597Z" />
<glyph unicode="&#xf2;" horiz-adv-x="616" d="M308 -10Q230 -10 167 26T67 123T30 260Q30 336 66 397T166 495T308 531Q386 531 449 495T549 398T586 260Q586 184 550 123T450 26T308 -10ZM308 109Q349 109 381 129T433 183T453 260Q453 303 434 337T382 391T308
412Q268 412 235 392T183 337T164 260Q164 218 183 184T235 129T308 109ZM523 608L388 738H546L634 608H523Z" />
<glyph unicode="&#xf3;" horiz-adv-x="616" d="M308 -10Q230 -10 167 26T67 123T30 260Q30 336 66 397T166 495T308 531Q386 531 449 495T549 398T586 260Q586 184 550 123T450 26T308 -10ZM308 109Q349 109 381 129T433 183T453 260Q453 303 434 337T382 391T308
412Q268 412 235 392T183 337T164 260Q164 218 183 184T235 129T308 109ZM227 608L317 738H473L338 608H227Z" />
<glyph unicode="&#xf4;" horiz-adv-x="616" d="M308 -10Q230 -10 167 26T67 123T30 260Q30 336 66 397T166 495T308 531Q386 531 449 495T549 398T586 260Q586 184 550 123T450 26T308 -10ZM308 109Q349 109 381 129T433 183T453 260Q453 303 434 337T382 391T308
412Q268 412 235 392T183 337T164 260Q164 218 183 184T235 129T308 109ZM380 605L306 679L233 605H123L238 741H378L493 605H380Z" />
<glyph unicode="&#xf5;" horiz-adv-x="616" d="M308 -10Q230 -10 167 26T67 123T30 260Q30 336 66 397T166 495T308 531Q386 531 449 495T549 398T586 260Q586 184 550 123T450 26T308 -10ZM308 109Q349 109 381 129T433 183T453 260Q453 303 434 337T382 391T308
412Q268 412 235 392T183 337T164 260Q164 218 183 184T235 129T308 109ZM198 597L114 615Q141 736 228 736Q256 736 282 724T333 699T375 686Q392 686 402 698T419 740L501 722Q489 660 461 630T388 600Q361 600 335 612T284 637T240 650Q224 650 214 638T198
597Z" />
<glyph unicode="&#xf6;" horiz-adv-x="616" d="M308 -10Q230 -10 167 26T67 123T30 260Q30 336 66 397T166 495T308 531Q386 531 449 495T549 398T586 260Q586 184 550 123T450 26T308 -10ZM308 109Q349 109 381 129T433 183T453 260Q453 303 434 337T382 391T308
412Q268 412 235 392T183 337T164 260Q164 218 183 184T235 129T308 109ZM196 605Q166 605 145 625T124 677Q124 708 145 728T196 749Q227 749 247 729T268 677Q268 645 248 625T196 605ZM420 605Q390 605 369 625T348 677Q348 708 369 728T420 749Q451 749 471
729T492 677Q492 645 472 625T420 605Z" />
<glyph unicode="&#xf7;" horiz-adv-x="600" d="M300 495Q267 495 244 519T220 576Q220 610 243 633T300 657Q333 657 356 634T380 576Q380 544 357 520T300 495ZM300 60Q267 60 244 84T220 141Q220 175 243 198T300 222Q333 222 356 199T380 141Q380 108 357 84T300
60ZM83 307V410H517V307H83Z" />
<glyph unicode="&#xf8;" horiz-adv-x="616" d="M308 -10Q268 -10 231 0T163 29L139 0H46L106 73Q70 109 50 157T30 260Q30 336 67 397T167 495T308 531Q348 531 384 521T452 492L476 521H570L510 449Q545 412 565 364T586 260Q586 184 549 123T449 26T308 -10ZM189
174L373 396Q359 404 343 408T308 412Q268 412 235 392T183 338T164 260Q164 236 170 214T189 174ZM308 109Q349 109 381 129T433 183T452 260Q452 285 446 307T426 347L243 125Q257 118 274 114T308 109Z" />
<glyph unicode="&#xf9;" horiz-adv-x="593" d="M256 -10Q196 -10 150 16T77 90T50 198V521H187V218Q187 168 216 138T296 108Q330 108 357 121T403 160V521H540V0H403V42Q343 -10 256 -10ZM512 608L377 738H535L623 608H512Z" />
<glyph unicode="&#xfa;" horiz-adv-x="593" d="M256 -10Q196 -10 150 16T77 90T50 198V521H187V218Q187 168 216 138T296 108Q330 108 357 121T403 160V521H540V0H403V42Q343 -10 256 -10ZM472 608L562 738H718L583 608H472Z" />
<glyph unicode="&#xfb;" horiz-adv-x="593" d="M256 -10Q196 -10 150 16T77 90T50 198V521H187V218Q187 168 216 138T296 108Q330 108 357 121T403 160V521H540V0H403V42Q343 -10 256 -10ZM625 605L551 679L478 605H368L483 741H623L738 605H625Z" />
<glyph unicode="&#xfc;" horiz-adv-x="593" d="M256 -10Q196 -10 150 16T77 90T50 198V521H187V218Q187 168 216 138T296 108Q330 108 357 121T403 160V521H540V0H403V42Q343 -10 256 -10ZM441 605Q411 605 390 625T369 677Q369 708 390 728T441 749Q472 749 492
729T513 677Q513 645 493 625T441 605ZM665 605Q635 605 614 625T593 677Q593 708 614 728T665 749Q696 749 716 729T737 677Q737 645 717 625T665 605Z" />
<glyph unicode="&#xfd;" horiz-adv-x="577" d="M105 -215Q87 -215 71 -214T43 -210V-92Q63 -96 91 -96Q166 -96 195 -25L203 -5L0 521H151L281 166L428 521H576L336 -42Q309 -105 277 -143T204 -198T105 -215ZM461 608L551 738H707L572 608H461Z" />
<glyph unicode="&#xfe;" horiz-adv-x="634" d="M54 -209V700L191 730V479Q253 528 337 528Q411 528 471 492T566 396T602 260Q602 185 566 125T469 29T333 -7Q294 -7 258 3T191 34V-209H54ZM315 411Q277 411 246 399T191 361V158Q213 135 245 122T315 109Q358
109 392 129T447 183T467 260Q467 303 447 337T393 391T315 411Z" />
<glyph unicode="&#xff;" horiz-adv-x="577" d="M105 -215Q87 -215 71 -214T43 -210V-92Q63 -96 91 -96Q166 -96 195 -25L203 -5L0 521H151L281 166L428 521H576L336 -42Q309 -105 277 -143T204 -198T105 -215ZM430 605Q400 605 379 625T358 677Q358 708 379 728T430
749Q461 749 481 729T502 677Q502 645 482 625T430 605ZM654 605Q624 605 603 625T582 677Q582 708 603 728T654 749Q685 749 705 729T726 677Q726 645 706 625T654 605Z" />
<glyph unicode="&#x2013;" horiz-adv-x="558" d="M41 227V343H517V227H41Z" />
<glyph unicode="&#x2014;" horiz-adv-x="708" d="M41 227V343H667V227H41Z" />
<glyph unicode="&#x2018;" horiz-adv-x="250" d="M235 741L167 478H25L132 741H235Z" />
<glyph unicode="&#x2019;" horiz-adv-x="250" d="M19 478L87 741H229L122 478H19Z" />
<glyph unicode="&#x201a;" horiz-adv-x="250" d="M3 -151L71 112H213L106 -151H3Z" />
<glyph unicode="&#x201c;" horiz-adv-x="442" d="M235 741L167 478H25L132 741H235ZM427 741L359 478H217L324 741H427Z" />
<glyph unicode="&#x201d;" horiz-adv-x="442" d="M211 478L279 741H421L314 478H211ZM19 478L87 741H229L122 478H19Z" />
<glyph unicode="&#x201e;" horiz-adv-x="442" d="M195 -151L263 112H405L298 -151H195ZM3 -151L71 112H213L106 -151H3Z" />
<glyph unicode="&#x2022;" horiz-adv-x="355" d="M177 216Q145 216 118 231T76 273T60 331Q60 364 75 390T118 432T177 448Q210 448 236 432T279 390T295 331Q295 299 279 273T237 232T177 216Z" />
<glyph unicode="&#x2039;" horiz-adv-x="431" d="M261 0L19 261L261 521H401L165 262L404 0H261Z" />
<glyph unicode="&#x203a;" horiz-adv-x="431" d="M170 521L412 260L170 0H30L266 259L27 521H170Z" />
</font>
</defs>
</svg>
