<?xml version="1.0" standalone="no"?>
<!DOCTYPE svg PUBLIC "-//W3C//DTD SVG 1.1//EN" "http://www.w3.org/Graphics/SVG/1.1/DTD/svg11.dtd">
<svg xmlns="http://www.w3.org/2000/svg">
<defs >
<font id="RedHatDisplay" horiz-adv-x="518" ><font-face
    font-family="Red Hat Display"
    units-per-em="1000"
    panose-1="2 1 3 3 4 2 1 13 3 3"
    ascent="1018"
    descent="-305"
    alphabetic="0" />
<glyph unicode=" " horiz-adv-x="215" />
<glyph unicode="!" horiz-adv-x="193" d="M56 194L156 705H232L114 194H56ZM47 -6Q28 -6 15 7T2 39Q2 54 10 67T31 88T59 96Q78 96 90 83T103 50Q103 36 95 23T75 2T47 -6Z" />
<glyph unicode="&quot;" horiz-adv-x="316" d="M117 497L150 701H224L169 497H117ZM245 497L278 701H352L297 497H245Z" />
<glyph unicode="#" horiz-adv-x="678" d="M6 0L114 219H5L17 277H142L214 423H97L110 481H242L350 700H419L311 481H503L611 700H679L571 481H680L668 423H543L471 277H587L575 219H443L335 0H267L375 219H182L74 0H6ZM211 277H403L475 423H282L211 277Z" />
<glyph unicode="$" horiz-adv-x="555" d="M182 -67L201 23Q140 34 89 66T-2 150L50 195Q117 106 214 84L266 328L230 338Q157 359 122 397T86 493Q86 551 115 594T199 660T325 684H341L359 766H408L389 678Q442 669 491 645T581 583L533 532Q462 599 376 617L327
384L344 380Q438 353 477 318T517 221Q517 160 486 115T397 44T264 18H249L231 -67H182ZM280 394L329 623H318Q245 623 200 590T154 502Q154 464 178 440T258 400L280 394ZM262 79Q319 79 360 96T425 143T448 212Q448 239 435 257T393 290T313 319L262 79Z" />
<glyph unicode="%" horiz-adv-x="761" d="M208 345Q150 345 116 382T82 483Q82 544 105 594T168 674T255 705Q313 705 347 668T381 567Q381 506 358 456T295 376T208 345ZM213 391Q246 391 273 415T316 479T332 566Q332 610 310 635T249 660Q218 660 191 636T148
572T132 485Q132 441 154 416T213 391ZM105 0L639 700H700L163 0H105ZM547 -5Q489 -5 455 32T421 133Q421 194 444 244T507 324T594 355Q652 355 686 318T720 217Q720 157 697 107T634 26T547 -5ZM552 41Q585 41 612 65T655 129T671 216Q671 260 649 285T588 310Q557
310 530 286T487 222T471 135Q471 91 493 66T552 41Z" />
<glyph unicode="&amp;" horiz-adv-x="640" d="M588 39L539 -11Q517 7 495 28T450 73Q402 32 348 11T234 -11Q168 -11 118 12T41 75T13 171Q13 220 32 258T95 330T213 398Q194 434 186 463T177 526Q177 579 201 621T266 687T359 711Q402 711 435 695T486 649T505
582Q505 527 471 485T359 404L303 376Q338 321 377 269T457 170Q489 208 516 254T565 353L629 335Q603 272 571 220T499 124Q522 101 544 80T588 39ZM245 531Q245 506 252 482T277 426L338 456Q388 481 411 509T435 573Q435 609 414 631T354 653Q323 653 298 638T259
595T245 531ZM84 184Q84 124 127 88T241 51Q286 51 328 68T409 118Q368 165 327 221T240 347Q184 322 150 297T100 244T84 184Z" />
<glyph unicode="&apos;" horiz-adv-x="187" d="M117 497L150 701H224L169 497H117Z" />
<glyph unicode="(" horiz-adv-x="381" d="M211 -212Q132 -150 91 -60T49 143Q49 266 92 376T214 573T400 711L429 657Q360 626 304 573T206 453T143 308T120 149Q120 47 156 -33T259 -165L211 -212Z" />
<glyph unicode=")" horiz-adv-x="381" d="M171 713Q251 651 292 561T333 358Q333 235 290 125T168 -72T-18 -210L-47 -156Q22 -124 78 -72T176 48T239 193T262 352Q262 454 227 534T123 666L171 713Z" />
<glyph unicode="*" horiz-adv-x="437" d="M211 341L242 480L113 414L92 462L229 528L126 607L162 648L261 568L287 700H340L310 568L436 631L458 584L323 520L429 440L391 398L291 479L264 341H211Z" />
<glyph unicode="+" horiz-adv-x="599" d="M247 145L286 326H119L132 386H298L337 567H399L360 386H527L514 326H348L309 145H247Z" />
<glyph unicode="," horiz-adv-x="250" d="M-37 -137L64 74H144L21 -137H-37Z" />
<glyph unicode="-" horiz-adv-x="439" d="M61 314H403L389 248H47L61 314Z" />
<glyph unicode="." horiz-adv-x="250" d="M76 -6Q57 -6 44 7T31 39Q31 54 39 67T60 88T88 96Q107 96 119 83T132 50Q132 36 124 23T104 2T76 -6Z" />
<glyph unicode="/" horiz-adv-x="451" d="M-164 -204L441 700H518L-88 -204H-164Z" />
<glyph unicode="0" horiz-adv-x="655" d="M302 -11Q229 -11 174 23T89 119T59 263Q59 354 85 435T158 578T265 675T394 711Q468 711 522 677T607 582T638 437Q638 346 612 265T538 122T431 25T302 -11ZM311 54Q363 54 409 84T490 168T546 290T566 438Q566 535
518 591T386 647Q334 647 288 617T207 533T151 410T130 262Q130 165 178 110T311 54Z" />
<glyph unicode="1" horiz-adv-x="284" d="M89 0L222 623L95 571L109 638L263 700H310L161 0H89Z" />
<glyph unicode="2" horiz-adv-x="531" d="M247 0L258 53L633 395Q675 433 695 469T715 543Q715 589 679 618T585 647Q541 647 499 629T400 568L369 621Q431 666 486 688T598 711Q654 711 696 691T762 635T786 552Q786 516 775 485T740 423T675 355L353 62L701
63L688 0H247Z" />
<glyph unicode="3" horiz-adv-x="571" d="M508 -11Q432 -11 372 20T264 111L318 155Q360 100 408 76T515 52Q566 52 604 71T664 123T686 200Q686 254 648 290T542 327H483L496 389H576Q618 389 652 407T707 456T728 524Q728 574 691 610T582 647Q532 647 491 632T406
580L368 630Q412 670 466 690T583 711Q654 711 702 687T776 622T801 535Q801 475 764 426T644 351Q697 333 727 293T757 204Q757 142 725 93T637 17T508 -11Z" />
<glyph unicode="4" horiz-adv-x="606" d="M363 0L403 187H12L24 245L506 700H583L487 250H570L557 187H474L434 0H363ZM116 250H416L491 605L116 250Z" />
<glyph unicode="5" horiz-adv-x="557" d="M499 -11Q426 -11 365 18T265 100L314 146Q352 97 398 74T503 51Q557 51 599 75T665 140T690 233Q690 299 648 336T531 374Q500 374 467 367T394 342L349 363L434 700H827L813 637H482L422 404Q457 419 488 425T553 432Q618
432 665 409T737 343T763 240Q763 171 728 114T632 23T499 -11Z" />
<glyph unicode="6" horiz-adv-x="604" d="M307 -11Q243 -11 188 22T99 120T65 275Q65 376 92 456T167 593T277 680T409 711Q466 711 511 695T596 647L556 588Q519 618 483 632T410 646Q342 646 285 609T189 503T139 342Q181 389 232 414T341 439Q406 439 455 412T531
339T558 235Q558 179 538 134T483 57T403 7T307 -11ZM316 53Q364 53 402 76T463 141T486 234Q486 278 467 310T413 361T328 380Q276 380 226 356T136 288Q137 212 160 160T224 80T316 53Z" />
<glyph unicode="7" horiz-adv-x="545" d="M296 0L779 637H360L374 700H873L861 644L380 0H296Z" />
<glyph unicode="8" horiz-adv-x="603" d="M280 -10Q209 -10 155 15T70 84T40 181Q40 229 63 269T130 338T231 378Q183 398 158 435T133 517Q133 576 165 619T250 687T366 711Q434 711 480 688T551 625T576 541Q576 497 557 461T500 399T412 360Q467 338 501 295T536
197Q536 135 501 89T408 16T280 -10ZM349 399Q392 399 427 417T484 466T506 536Q506 569 491 595T443 637T360 653Q317 653 282 635T225 587T203 516Q203 483 221 457T271 415T349 399ZM286 47Q340 47 380 66T442 119T464 197Q464 236 443 267T384 318T293 337Q239
337 198 318T135 266T112 189Q112 150 133 118T193 67T286 47Z" />
<glyph unicode="9" horiz-adv-x="605" d="M338 711Q402 711 457 678T546 580T580 425Q580 325 553 244T478 107T368 20T236 -11Q179 -11 135 5T49 53L89 112Q127 82 162 68T235 54Q303 54 360 91T457 197T506 358Q464 312 413 287T304 261Q239 261 190 288T114
361T87 465Q87 521 107 566T162 643T242 693T338 711ZM329 647Q281 647 243 624T182 559T159 466Q159 423 178 390T232 339T317 320Q370 320 420 344T509 412Q509 488 486 540T422 620T329 647Z" />
<glyph unicode=":" horiz-adv-x="250" d="M78 -6Q59 -6 46 7T33 39Q33 54 41 67T62 88T90 96Q109 96 121 83T134 50Q134 36 126 23T106 2T78 -6ZM166 410Q147 410 134 423T121 455Q121 470 129 483T150 504T178 512Q197 512 209 499T222 466Q222 452 214 439T194
418T166 410Z" />
<glyph unicode=";" horiz-adv-x="250" d="M170 410Q151 410 138 423T125 455Q125 470 133 483T154 504T182 512Q201 512 213 499T226 466Q226 452 218 439T198 418T170 410ZM-37 -137L64 74H144L21 -137H-37Z" />
<glyph unicode="&lt;" horiz-adv-x="599" d="M408 103L143 349L503 594L535 542L237 343L452 148L408 103Z" />
<glyph unicode="=" horiz-adv-x="600" d="M358 501L371 561H765L752 501H358ZM137 408L150 468H544L531 408H137Z" />
<glyph unicode="&gt;" horiz-adv-x="600" d="M236 594L501 348L141 103L109 155L407 354L192 549L236 594Z" />
<glyph unicode="?" horiz-adv-x="496" d="M172 199Q179 247 193 281T231 342T292 388L356 424Q398 449 422 481T446 548Q446 591 410 618T315 645Q269 645 224 624T140 565L94 606Q144 656 204 683T325 711Q382 711 425 692T493 638T518 557Q518 502 487 458T387
374L325 339Q284 316 263 283T234 199H172ZM166 -6Q147 -6 135 7T122 39Q122 54 130 67T150 88T178 96Q198 96 210 83T223 50Q223 36 215 23T194 2T166 -6Z" />
<glyph unicode="@" horiz-adv-x="772" d="M398 -144Q322 -144 257 -118T143 -44T67 68T40 207Q40 286 66 353T141 470T254 548T395 576Q466 576 526 553T632 488T703 390T728 269Q728 208 705 160T643 83T552 55Q486 55 459 96Q408 51 353 51Q312 51 280 71T228
125T209 202Q209 251 232 291T293 355T379 379Q408 379 434 369T480 340L485 366H541L502 174Q495 138 509 119T557 99Q593 99 621 121T665 181T681 267Q681 343 643 403T540 497T393 532Q329 532 274 508T177 439T112 336T89 209Q89 120 129 51T240 -59T401 -99Q496
-99 572 -58L590 -99Q547 -121 499 -132T398 -144ZM364 98Q410 98 445 133Q442 152 447 179L469 285Q455 307 431 319T377 331Q347 331 322 314T281 269T265 206Q265 158 293 128T364 98Z" />
<glyph unicode="A" horiz-adv-x="666" d="M-49 0L381 700H473L609 0H531L490 220H168L35 0H-49ZM208 286H478L414 627L208 286Z" />
<glyph unicode="B" horiz-adv-x="644" d="M22 0L171 700H431Q522 700 574 659T626 544Q626 479 589 431T488 359Q536 340 563 304T590 219Q590 155 557 106T465 28T331 0H22ZM181 395H386Q459 395 504 433T550 532Q550 579 515 606T420 633H232L181 395ZM111 67H332Q386
67 427 86T491 139T514 218Q514 271 476 301T369 331H167L111 67Z" />
<glyph unicode="C" horiz-adv-x="709" d="M396 -11Q325 -11 265 14T159 83T89 188T64 319Q64 399 94 469T176 594T298 678T446 709Q533 709 602 677T718 584L661 532Q626 583 569 611T442 639Q379 639 325 615T229 547T164 446T141 322Q141 247 175 188T267 94T401
59Q463 59 522 82T627 148L667 95Q610 44 540 17T396 -11Z" />
<glyph unicode="D" horiz-adv-x="706" d="M22 0L171 700H369Q440 700 498 678T599 615T663 517T686 391Q686 310 655 239T567 115T436 31T278 0H22ZM112 70H288Q355 70 413 94T515 163T584 265T609 389Q609 461 579 515T493 600T365 630H231L112 70Z" />
<glyph unicode="E" horiz-adv-x="604" d="M22 0L171 700H662L647 632H232L179 387H451L437 320H165L111 68H531L517 0H22Z" />
<glyph unicode="F" horiz-adv-x="595" d="M22 0L171 700H662L647 632H232L178 382H451L437 315H164L97 0H22Z" />
<glyph unicode="G" horiz-adv-x="774" d="M389 -11Q319 -11 260 14T156 84T86 189T61 320Q61 400 91 470T174 595T296 679T443 710Q530 710 601 677T721 578L662 528Q626 580 566 609T438 639Q376 639 322 615T226 547T161 446T137 322Q137 247 170 188T262 95T394
60Q461 60 518 90T614 174T666 298H420L431 366H754L745 314Q730 220 679 147T553 31T389 -11Z" />
<glyph unicode="H" horiz-adv-x="701" d="M22 0L171 700H246L179 387H578L645 700H721L572 0H496L564 318H165L97 0H22Z" />
<glyph unicode="I" horiz-adv-x="227" d="M22 0L171 700H246L97 0H22Z" />
<glyph unicode="J" horiz-adv-x="588" d="M240 -11Q150 -11 90 37T10 171L78 197Q109 60 240 60Q320 60 376 113T453 264L546 700H622L528 258Q509 172 470 112T372 21T240 -11Z" />
<glyph unicode="K" horiz-adv-x="604" d="M22 0L171 700H246L177 377L598 700H702L254 358L557 0H459L170 345L97 0H22Z" />
<glyph unicode="L" horiz-adv-x="592" d="M22 0L171 700H246L112 69H520L506 0H22Z" />
<glyph unicode="M" horiz-adv-x="830" d="M22 0L171 700H273L402 202L741 700H850L701 0H631L760 611L372 50L223 613L93 0H22Z" />
<glyph unicode="N" horiz-adv-x="711" d="M22 0L171 700H243L537 123L659 700H730L581 0H518L217 592L93 0H22Z" />
<glyph unicode="O" horiz-adv-x="794" d="M391 -11Q321 -11 261 14T157 84T87 189T62 320Q62 400 92 470T174 595T295 680T442 711Q512 711 572 686T676 616T746 511T771 380Q771 300 741 230T659 105T538 20T391 -11ZM396 60Q458 60 512 85T607 153T671 254T695
376Q695 451 662 511T570 605T437 640Q376 640 322 615T226 547T162 446T138 324Q138 249 171 190T263 95T396 60Z" />
<glyph unicode="P" horiz-adv-x="634" d="M22 0L171 700H448Q510 700 554 679T623 618T648 525Q648 458 616 406T528 325T400 295H160L97 0H22ZM174 362H399Q450 362 489 382T551 437T573 519Q573 572 537 601T437 631H231L174 362Z" />
<glyph unicode="Q" horiz-adv-x="793" d="M391 -11Q321 -11 261 14T157 84T87 189T62 320Q62 400 92 470T174 595T295 680T442 711Q512 711 572 686T676 616T746 511T771 380Q771 290 733 212T631 78L686 -11L609 -16L575 39Q535 15 488 2T391 -11ZM396 60Q435
60 471 70T539 99L464 222L540 226L593 140Q640 184 667 245T695 376Q695 451 662 511T570 605T437 640Q376 640 322 615T226 547T162 446T138 324Q138 249 171 190T263 95T396 60Z" />
<glyph unicode="R" horiz-adv-x="632" d="M22 0L171 700H448Q509 700 553 679T622 618T646 525Q646 469 622 423T554 347T454 306L553 0H474L378 301H161L97 0H22ZM175 366H398Q449 366 488 385T549 440T571 519Q571 571 535 601T436 631H231L175 366Z" />
<glyph unicode="S" horiz-adv-x="590" d="M291 -10Q202 -10 127 28T-1 140L55 188Q101 124 162 90T295 55Q350 55 392 73T458 123T482 196Q482 241 450 269T342 316L247 340Q162 363 120 405T78 512Q78 572 108 616T194 685T324 709Q399 709 471 680T601 596L552
540Q499 590 440 616T318 643Q242 643 197 610T152 520Q152 478 182 451T276 407L370 384Q468 359 512 317T557 207Q557 142 524 93T432 17T291 -10Z" />
<glyph unicode="T" horiz-adv-x="605" d="M211 0L345 631H97L112 700H683L668 631H420L286 0H211Z" />
<glyph unicode="U" horiz-adv-x="690" d="M318 -11Q226 -11 164 29T78 140T73 303L157 700H233L147 299Q132 229 149 175T210 91T321 60Q410 60 473 122T560 293L647 700H723L635 290Q615 193 571 126T463 24T318 -11Z" />
<glyph unicode="V" horiz-adv-x="666" d="M235 0L99 700H177L294 71L676 700H757L327 0H235Z" />
<glyph unicode="W" horiz-adv-x="865" d="M129 0V700H203L199 125L490 700H563L611 125L850 700H927L630 0H553L505 593L205 0H129Z" />
<glyph unicode="X" horiz-adv-x="625" d="M-52 0L292 366L120 700H204L347 422L608 700H701L380 360L566 0H482L325 304L41 0H-52Z" />
<glyph unicode="Y" horiz-adv-x="627" d="M221 0L281 286L98 700H178L331 354L628 700H719L357 282L297 0H221Z" />
<glyph unicode="Z" horiz-adv-x="592" d="M-30 0L-18 55L534 632H108L122 700H654L641 645L88 68H528L513 0H-30Z" />
<glyph unicode="[" horiz-adv-x="341" d="M-42 -207L151 700H398L385 640H208L41 -147H218L205 -207H-42Z" />
<glyph unicode="\" horiz-adv-x="404" d="M394 -204H322L102 700H173L394 -204Z" />
<glyph unicode="]" horiz-adv-x="341" d="M381 700L188 -207H-59L-46 -147H131L298 640H121L134 700H381Z" />
<glyph unicode="^" horiz-adv-x="600" d="M117 350L366 700H429L527 350H466L386 634L186 350H117Z" />
<glyph unicode="_" horiz-adv-x="472" d="M-84 -137L-72 -80H402L390 -137H-84Z" />
<glyph unicode="`" horiz-adv-x="600" d="M354 600L233 716H326L417 600H354Z" />
<glyph unicode="a" horiz-adv-x="506" d="M187 -7Q110 -7 63 31T16 133Q16 182 41 218T112 275T220 296Q264 296 305 285T380 253L393 312Q407 380 378 414T274 448Q242 448 207 439T124 409L104 468Q156 490 201 500T286 510Q354 510 398 487T459 421T464 317L397
0H326L335 41Q301 17 265 5T187 -7ZM206 50Q245 50 280 62T348 101L368 195Q311 242 219 242Q161 242 123 213T85 140Q85 98 117 74T206 50Z" />
<glyph unicode="b" horiz-adv-x="578" d="M264 -9Q213 -9 170 10T95 64L81 0H10L159 700L234 717L181 466Q243 508 318 508Q382 508 431 478T510 396T539 278Q539 219 518 167T459 76T371 14T264 -9ZM262 57Q320 57 366 86T440 164T468 272Q468 322 447 360T389
421T303 443Q264 443 229 430T164 390L111 138Q131 101 172 79T262 57Z" />
<glyph unicode="c" horiz-adv-x="501" d="M260 -9Q196 -9 145 20T65 101T36 219Q36 278 58 330T118 423T207 486T314 509Q370 509 422 483T505 414L452 365Q425 403 389 422T309 442Q269 442 233 425T168 377T124 307T108 222Q108 176 129 138T187 78T269 56Q305
56 340 70T411 110L446 58Q360 -9 260 -9Z" />
<glyph unicode="d" horiz-adv-x="579" d="M259 -8Q196 -8 146 22T67 104T38 222Q38 281 59 332T119 423T207 485T314 508Q365 508 408 490T483 436L539 700L614 717L462 0H390L397 35Q334 -8 259 -8ZM275 56Q313 56 349 70T413 111L467 363Q447 399 406 421T316
443Q259 443 212 414T137 337T109 228Q109 178 130 139T189 78T275 56Z" />
<glyph unicode="e" horiz-adv-x="552" d="M280 -9Q210 -9 155 21T69 104T38 226Q38 284 58 335T115 426T199 487T301 509Q362 509 410 478T486 394T514 273Q514 263 514 252T511 228H110Q111 178 134 139T196 78T283 55Q320 55 355 66T418 96L456 45Q415 17 372
4T280 -9ZM117 287H445Q442 333 422 368T369 423T294 444Q252 444 216 424T154 368T117 287Z" />
<glyph unicode="f" horiz-adv-x="366" d="M78 0L171 438H56L69 501H185L207 606Q222 675 265 711T375 748Q396 748 415 745T451 735L438 669Q422 676 407 679T371 682Q331 682 309 663T278 600L257 501H402L388 438H243L150 0H78Z" />
<glyph unicode="g" horiz-adv-x="580" d="M245 -210Q190 -210 133 -191T32 -137L70 -82Q114 -113 156 -129T242 -145Q359 -145 385 -26L398 36Q334 -7 259 -7Q196 -7 146 23T68 104T39 222Q39 281 60 333T119 424T207 486T314 508Q364 508 408 490T482 437L496
501H568L457 -33Q439 -119 385 -164T245 -210ZM275 57Q354 57 414 112L467 363Q447 400 406 421T316 443Q259 443 212 414T138 337T110 228Q110 178 131 140T189 79T275 57Z" />
<glyph unicode="h" horiz-adv-x="539" d="M10 0L159 700L234 717L178 451Q243 510 329 510Q388 510 428 483T486 409T490 302L426 0H354L416 293Q431 362 401 404T305 446Q264 446 228 428T162 376L82 0H10Z" />
<glyph unicode="i" horiz-adv-x="198" d="M10 0L116 501H188L82 0H10ZM177 597Q158 597 146 610T133 642Q133 657 140 669T161 689T188 697Q207 697 219 685T232 653Q232 638 225 626T205 605T177 597Z" />
<glyph unicode="j" horiz-adv-x="198" d="M177 597Q158 597 146 610T133 642Q133 657 140 669T161 689T188 697Q207 697 219 685T232 653Q232 638 225 626T205 605T177 597ZM-80 -207Q-92 -207 -106 -205T-132 -199L-119 -137Q-111 -140 -101 -141T-77 -143Q-47
-143 -31 -128T-7 -78L116 501H188L63 -87Q51 -145 14 -176T-80 -207Z" />
<glyph unicode="k" horiz-adv-x="485" d="M10 0L159 700L234 717L142 282L440 501H539L207 257L438 0H348L133 241L82 0H10Z" />
<glyph unicode="l" horiz-adv-x="198" d="M10 0L159 700L234 717L82 0H10Z" />
<glyph unicode="m" horiz-adv-x="842" d="M10 0L116 501H188L177 449Q241 510 323 510Q376 510 413 485T466 415Q507 463 552 486T647 510Q702 510 739 484T792 413T794 309L729 0H657L722 304Q735 366 708 406T623 446Q545 446 476 361Q476 349 475 336T471 309L405
0H333L396 297Q411 363 384 404T298 446Q261 446 226 428T161 374L82 0H10Z" />
<glyph unicode="n" horiz-adv-x="539" d="M10 0L116 501H188L177 451Q244 510 329 510Q388 510 428 483T486 409T490 302L426 0H354L416 293Q431 362 401 404T305 446Q264 446 228 428T162 376L82 0H10Z" />
<glyph unicode="o" horiz-adv-x="581" d="M272 -10Q205 -10 153 21T70 106T39 229Q39 286 60 337T118 427T204 488T308 511Q375 511 427 480T510 395T541 272Q541 215 520 164T462 74T376 13T272 -10ZM275 56Q315 56 350 72T412 118T454 186T470 268Q470 319 449
359T390 422T305 445Q265 445 230 429T168 383T126 315T110 233Q110 183 131 143T190 79T275 56Z" />
<glyph unicode="p" horiz-adv-x="578" d="M-34 -204L116 501H188L180 465Q245 508 318 508Q382 508 431 478T510 396T539 278Q539 219 518 167T459 76T371 14T264 -9Q213 -9 170 10T95 64L38 -204H-34ZM262 57Q320 57 366 86T440 164T468 272Q468 322 447 360T389
421T303 443Q264 443 229 430T165 390L111 138Q131 101 172 79T262 57Z" />
<glyph unicode="q" horiz-adv-x="579" d="M347 -204L398 35Q367 14 332 3T259 -8Q196 -8 146 22T67 104T38 222Q38 281 59 332T119 423T207 485T314 508Q365 508 408 490T483 436L497 501H568L419 -204H347ZM275 56Q314 56 350 70T414 111L467 363Q447 399 406
421T316 443Q259 443 212 414T137 337T109 228Q109 178 130 139T189 78T275 56Z" />
<glyph unicode="r" horiz-adv-x="338" d="M8 0L115 501H186L173 438Q201 473 238 492T317 512Q348 512 370 503L356 435Q346 440 330 443T299 446Q212 446 154 350L80 0H8Z" />
<glyph unicode="s" horiz-adv-x="438" d="M199 -10Q138 -10 80 15T-13 83L35 128Q69 90 111 70T201 50Q257 50 293 76T330 142Q330 170 311 186T249 213L167 232Q103 246 73 277T43 358Q43 404 66 437T130 490T226 509Q282 509 332 490T427 430L383 382Q346 415
305 432T222 450Q171 450 140 426T109 364Q109 336 127 320T189 294L271 275Q337 260 368 230T399 149Q399 104 373 68T301 11T199 -10Z" />
<glyph unicode="t" horiz-adv-x="357" d="M215 -9Q145 -9 114 24T95 119L162 438H56L70 501H175L202 628L279 647L248 501H394L380 438H234L169 135Q160 92 177 74T243 55Q257 55 270 57T301 65L288 0Q272 -4 253 -6T215 -9Z" />
<glyph unicode="u" horiz-adv-x="538" d="M209 -9Q150 -9 109 18T52 93T47 200L111 501H183L121 208Q106 139 137 97T232 55Q274 55 311 73T376 127L456 501H528L421 0H349L360 50Q293 -9 209 -9Z" />
<glyph unicode="v" horiz-adv-x="503" d="M163 0L58 501H135L216 96L470 501H551L231 0H163Z" />
<glyph unicode="w" horiz-adv-x="689" d="M100 0L67 501H136L157 101L364 501H429L466 101L657 501H728L484 0H413L377 401L169 0H100Z" />
<glyph unicode="x" horiz-adv-x="480" d="M-51 0L200 261L71 501H153L251 312L431 501H519L282 256L420 0H340L233 204L38 0H-51Z" />
<glyph unicode="y" horiz-adv-x="501" d="M-6 -214Q-20 -214 -34 -212T-61 -206L-47 -140Q-39 -143 -28 -144T-4 -146Q28 -146 55 -128T106 -73L154 1L58 501H135L210 86L468 501H549L178 -88Q136 -155 93 -184T-6 -214Z" />
<glyph unicode="z" horiz-adv-x="453" d="M-23 0L-11 58L357 435H72L86 501H468L456 444L86 66H378L364 0H-23Z" />
<glyph unicode="{" horiz-adv-x="373" d="M168 -212Q106 -212 74 -183T41 -107T77 -6L140 87Q164 122 165 152T150 201T96 220H18L31 281H109Q165 281 193 319T209 412L187 515Q176 571 192 615T246 684T340 710Q363 710 384 706T428 690L401 635Q385 643 369
646T336 650Q288 650 265 618T251 527L276 403Q283 365 271 333T230 278T164 247Q198 234 215 209T233 152T209 85L136 -28Q113 -63 112 -91T127 -136T178 -152Q196 -152 208 -151T235 -145L238 -203Q216 -208 202 -210T168 -212Z" />
<glyph unicode="|" horiz-adv-x="268" d="M3 -205L196 700H263L70 -205H3Z" />
<glyph unicode="}" horiz-adv-x="373" d="M203 699Q265 699 297 670T330 595T294 493L231 400Q208 365 206 335T222 286T275 267H353L340 206H262Q207 206 179 169T162 75L184 -28Q196 -83 180 -127T125 -197T31 -223Q8 -223 -13 -218T-57 -203L-30 -148Q-14 -155
2 -159T35 -163Q83 -163 107 -131T120 -40L95 84Q88 122 101 154T141 209T207 240Q174 253 156 278T139 335T162 402L235 515Q258 551 259 579T244 623T193 639Q175 639 163 638T136 632L133 690Q155 695 169 697T203 699Z" />
<glyph unicode="~" horiz-adv-x="600" d="M140 312L86 325Q107 389 142 423T220 457Q240 457 261 450T315 421L378 379Q401 365 412 360T436 355Q462 355 482 376T517 439L570 426Q549 362 515 328T437 293Q415 293 395 301T341 330L278 372Q256 386 244 390T219
395Q194 395 174 374T140 312Z" />
<glyph unicode="&#xa0;" horiz-adv-x="215" />
<glyph unicode="&#xa1;" horiz-adv-x="194" d="M136 303L36 -208H-40L78 303H136ZM145 503Q165 503 177 490T190 458Q190 443 182 430T161 409T133 401Q114 401 102 414T89 447Q89 462 97 474T118 495T145 503Z" />
<glyph unicode="&#xa2;" horiz-adv-x="505" d="M184 -118L208 -4Q157 7 119 38T58 115T36 219Q36 278 57 330T118 423T208 486T318 509L339 609H380L358 505Q402 496 441 473T505 414L452 365Q431 395 404 413T344 438L263 56Q304 56 340 70T411 110L446 58Q399
21 352 6T249 -9L226 -118H184ZM223 63L303 442Q251 440 207 410T135 330T108 222Q108 165 140 122T223 63Z" />
<glyph unicode="&#xa3;" horiz-adv-x="605" d="M409 -30Q393 -30 376 -27T338 -19L155 31Q142 35 130 36T106 38Q46 38 6 -18L-40 23Q-7 64 30 83T111 102Q131 113 142 135T155 189L159 312H54L67 369H160L163 462Q166 538 195 593T274 680T390 711Q485 711 540
662T603 518L538 504Q529 649 387 649Q317 649 277 600T233 464L230 369H436L424 312H229L226 203Q223 127 179 91L369 41Q382 38 393 36T415 34Q468 34 508 83L554 44Q523 7 488 -11T409 -30Z" />
<glyph unicode="&#xa4;" horiz-adv-x="681" d="M85 64L46 104L139 198Q114 231 100 273T85 361Q85 408 99 449T140 523L46 618L86 659L180 564Q213 591 254 606T341 621Q387 621 428 606T502 564L596 659L635 619L540 524Q566 491 581 450T596 361Q596 315 582
274T542 199L636 104L596 63L502 157Q469 130 428 115T341 100Q295 100 253 115T178 158L85 64ZM341 166Q392 166 433 192T499 262T523 361Q523 416 499 459T434 529T341 555Q290 555 249 529T183 460T158 361Q158 307 182 263T248 192T341 166Z" />
<glyph unicode="&#xa5;" horiz-adv-x="628" d="M221 0L249 134H66L77 188H260L276 263H94L104 317H267L98 700H178L331 354L628 700H719L387 317H547L536 263H353L337 188H519L509 134H326L297 0H221Z" />
<glyph unicode="&#xa6;" horiz-adv-x="274" d="M179 288H111L199 700H267L179 288ZM7 -204L94 208H162L75 -204H7Z" />
<glyph unicode="&#xa7;" horiz-adv-x="554" d="M240 -51Q191 -51 141 -33T48 17L88 66Q130 35 169 20T245 5Q290 5 316 27T343 86Q343 131 285 159L185 206Q126 235 101 264T76 333Q76 390 114 429T219 479Q181 514 181 565Q181 608 202 640T262 691T351 710Q400
710 450 692T542 642L503 593Q460 624 421 639T345 654Q300 654 274 632T247 573Q247 528 305 500L406 453Q465 425 490 396T515 326Q515 269 477 230T373 178Q410 144 410 95Q410 52 389 19T329 -32T240 -51ZM317 215Q375 217 412 244T450 312Q450 338 433 358T377
396L277 442Q217 441 179 415T140 348Q140 322 158 302T213 264L317 215Z" />
<glyph unicode="&#xa8;" horiz-adv-x="600" d="M295 602Q276 602 264 614T252 646Q252 667 268 683T306 700Q324 700 336 687T349 656Q349 635 333 619T295 602ZM468 602Q450 602 438 614T425 646Q425 667 441 683T480 700Q498 700 510 687T522 656Q522 635 506
619T468 602Z" />
<glyph unicode="&#xa9;" horiz-adv-x="792" d="M388 -9Q294 -9 220 32T104 146T61 311Q61 392 91 463T175 589T298 675T447 706Q541 706 614 665T730 551T773 386Q773 305 743 234T659 108T536 22T388 -9ZM388 33Q457 33 518 60T626 136T699 248T726 381Q726 463
690 526T590 626T444 663Q376 663 315 636T208 560T135 449T108 315Q108 234 144 171T244 70T388 33ZM405 167Q359 167 323 188T266 245T245 328Q245 383 272 429T345 504T445 533Q489 533 527 514T588 462L545 426Q527 452 500 467T442 482Q404 482 372 461T321
406T301 332Q301 283 332 251T412 219Q459 219 508 254L533 212Q506 190 473 179T405 167Z" />
<glyph unicode="&#xaa;" horiz-adv-x="400" d="M204 319Q146 319 111 348T75 425Q75 481 117 515T230 549Q262 549 292 541T348 518L357 559Q378 657 269 657Q247 657 221 651T157 629L141 677Q217 709 280 709Q359 709 395 670T417 562L366 325H307L313 354Q263
319 204 319ZM221 366Q278 366 324 403L338 471Q295 504 231 504Q188 504 161 484T134 431Q134 400 157 383T221 366Z" />
<glyph unicode="&#xab;" horiz-adv-x="598" d="M393 501L112 248L283 0H206L29 251L313 501H393ZM601 501L320 248L491 0H414L237 251L521 501H601Z" />
<glyph unicode="&#xac;" horiz-adv-x="547" d="M379 0L432 248H49L63 314H512L445 0H379Z" />
<glyph unicode="&#xad;" horiz-adv-x="447" d="M61 314H403L389 248H47L61 314Z" />
<glyph unicode="&#xae;" horiz-adv-x="480" d="M275 311Q224 311 185 334T122 396T99 487Q99 533 116 573T164 645T233 695T317 713Q369 713 408 690T471 628T494 537Q494 492 477 451T429 379T359 329T275 311ZM279 345Q328 345 368 371T433 440T457 536Q457
600 418 639T314 679Q265 679 225 653T160 584T136 489Q136 425 175 385T279 345ZM209 419L249 607H317Q344 607 358 594T373 554Q373 535 361 519T329 495L356 419H320L293 490H258L243 419H209ZM310 579H277L263 516H303Q320 516 329 526T339 551Q339 579 310
579Z" />
<glyph unicode="&#xaf;" horiz-adv-x="600" d="M233 621L245 674H523L511 621H233Z" />
<glyph unicode="&#xb0;" horiz-adv-x="381" d="M243 423Q206 423 178 439T133 485T116 551Q116 593 137 628T194 685T272 707Q309 707 337 691T382 645T399 579Q399 537 378 502T321 445T243 423ZM246 471Q274 471 297 485T334 522T348 574Q348 611 326 635T269
659Q241 659 218 645T181 608T167 556Q167 520 189 496T246 471Z" />
<glyph unicode="&#xb1;" horiz-adv-x="599" d="M50 -1L63 60H458L445 -1H50ZM255 173L292 349H124L138 409H305L342 585H402L365 409H532L518 349H352L315 173H255Z" />
<glyph unicode="&#xb2;" horiz-adv-x="286" d="M47 350L55 387L229 524Q258 547 271 566T284 607Q284 630 266 645T219 660Q197 660 175 651T124 621L102 659Q134 682 165 693T228 704Q276 704 306 679T336 615Q336 582 319 555T260 495L131 394H295L286 350H47Z" />
<glyph unicode="&#xb3;" horiz-adv-x="306" d="M184 345Q140 345 107 360T51 406L90 437Q107 413 131 402T187 390Q222 390 245 407T269 451Q269 475 251 489T204 504H173L182 546H209Q244 546 267 563T291 607Q291 630 273 644T225 658Q178 658 133 623L107 659Q135
681 167 692T232 704Q280 704 311 679T343 614Q343 583 323 559T269 523Q293 513 306 495T320 453Q320 423 302 399T253 360T184 345Z" />
<glyph unicode="&#xb4;" horiz-adv-x="600" d="M324 600L441 716H536L391 600H324Z" />
<glyph unicode="&#xb5;" horiz-adv-x="549" d="M-36 -205L114 501H187L123 199Q109 132 139 94T233 55Q278 55 317 75T387 133L465 501H539L433 0H359L371 58Q298 -10 200 -10Q165 -10 136 -1T87 27L37 -205H-36Z" />
<glyph unicode="&#xb6;" horiz-adv-x="648" d="M263 0L324 289H289Q230 289 186 311T118 374T93 468Q93 536 124 588T208 670T331 700H663L514 0H447L509 289H391L330 0H263ZM405 352H522L583 637H465L405 352ZM296 352H338L398 637H326Q278 637 241 617T183 560T162
476Q162 418 198 385T296 352Z" />
<glyph unicode="&#xb7;" horiz-adv-x="250" d="M126 231Q107 231 94 244T81 276Q81 291 89 304T110 325T138 333Q157 333 169 320T182 287Q182 273 174 260T154 239T126 231Z" />
<glyph unicode="&#xb8;" horiz-adv-x="600" d="M201 -228Q167 -228 138 -216T91 -181L124 -151Q156 -186 202 -186Q233 -186 252 -172T272 -134Q272 -114 256 -103T211 -91H182L227 0H270L242 -56Q279 -60 299 -79T320 -129Q320 -157 305 -179T262 -215T201 -228Z" />
<glyph unicode="&#xb9;" horiz-adv-x="162" d="M103 350L166 646L97 620L108 665L196 700H228L153 350H103Z" />
<glyph unicode="&#xba;" horiz-adv-x="455" d="M270 317Q219 317 179 340T115 405T92 498Q92 556 120 604T195 681T297 710Q348 710 388 687T451 622T474 529Q474 472 446 424T372 346T270 317ZM273 372Q312 372 344 393T395 449T414 526Q414 563 398 592T355
638T293 655Q255 655 223 634T172 578T152 501Q152 464 168 435T211 389T273 372Z" />
<glyph unicode="&#xbb;" horiz-adv-x="598" d="M205 0L486 253L315 501H392L569 250L285 0H205ZM-4 0L277 253L106 501H183L360 250L76 0H-4Z" />
<glyph unicode="&#xbc;" horiz-adv-x="603" d="M435 0L454 88H259L268 130L503 350H560L514 132H556L546 88H505L486 0H435ZM329 132H463L497 289L329 132ZM103 350L166 646L97 620L108 665L196 700H228L153 350H103ZM250 0L784 700H845L308 0H250Z" />
<glyph unicode="&#xbd;" horiz-adv-x="637" d="M103 350L166 646L97 620L108 665L196 700H228L153 350H103ZM245 0L779 700H840L303 0H245ZM319 0L327 37L501 174Q530 197 543 216T556 257Q556 280 538 295T491 310Q469 310 447 301T396 271L374 309Q406 332 437
343T500 354Q548 354 578 329T608 265Q608 232 591 205T532 145L403 44H567L558 0H319Z" />
<glyph unicode="&#xbe;" horiz-adv-x="697" d="M184 345Q140 345 107 360T51 406L90 437Q107 413 131 402T187 390Q222 390 245 407T269 451Q269 475 251 489T204 504H173L182 546H209Q244 546 267 563T291 607Q291 630 273 644T225 658Q178 658 133 623L107 659Q135
681 167 692T232 704Q280 704 311 679T343 614Q343 583 323 559T269 523Q293 513 306 495T320 453Q320 423 302 399T253 360T184 345ZM529 0L548 88H353L362 130L597 350H654L608 132H650L640 88H599L580 0H529ZM423 132H557L591 289L423 132ZM87 0L621 700H682L145
0H87Z" />
<glyph unicode="&#xbf;" horiz-adv-x="495" d="M331 298Q324 250 310 216T272 156T211 109L147 73Q105 48 81 16T57 -51Q57 -94 93 -121T188 -148Q235 -148 280 -127T363 -68L409 -109Q359 -159 300 -186T178 -214Q122 -214 78 -195T10 -141T-15 -60Q-15 -4 16
39T116 123L178 158Q219 181 240 214T269 298H331ZM337 503Q356 503 368 490T381 458Q381 443 374 430T353 409T325 401Q306 401 293 414T280 447Q280 462 288 474T309 495T337 503Z" />
<glyph unicode="&#xc0;" horiz-adv-x="666" d="M-49 0L381 700H473L609 0H531L490 220H168L35 0H-49ZM208 286H478L414 627L208 286ZM422 799L301 915H394L485 799H422Z" />
<glyph unicode="&#xc1;" horiz-adv-x="666" d="M-49 0L381 700H473L609 0H531L490 220H168L35 0H-49ZM208 286H478L414 627L208 286ZM392 799L509 915H604L459 799H392Z" />
<glyph unicode="&#xc2;" horiz-adv-x="666" d="M-49 0L381 700H473L609 0H531L490 220H168L35 0H-49ZM208 286H478L414 627L208 286ZM301 795L429 916H508L584 795H526L462 875L363 795H301Z" />
<glyph unicode="&#xc3;" horiz-adv-x="666" d="M-49 0L381 700H473L609 0H531L490 220H168L35 0H-49ZM208 286H478L414 627L208 286ZM328 798L279 813Q320 904 380 904Q408 904 432 890T478 861T521 847Q537 847 548 858T573 900L623 885Q603 838 578 816T520
793Q492 793 468 807T422 835T379 850Q364 850 352 838T328 798Z" />
<glyph unicode="&#xc4;" horiz-adv-x="666" d="M-49 0L381 700H473L609 0H531L490 220H168L35 0H-49ZM208 286H478L414 627L208 286ZM363 801Q344 801 332 813T320 845Q320 866 336 882T374 899Q392 899 404 886T417 855Q417 834 401 818T363 801ZM536 801Q518
801 506 813T493 845Q493 866 509 882T548 899Q566 899 578 886T590 855Q590 834 574 818T536 801Z" />
<glyph unicode="&#xc5;" horiz-adv-x="666" d="M-49 0L381 700H473L609 0H531L490 220H168L35 0H-49ZM208 286H478L414 627L208 286ZM455 781Q411 781 383 808T354 879Q354 912 370 940T414 985T472 1003Q517 1003 545 976T574 905Q574 872 558 844T514 799T455
781ZM455 821Q486 821 508 845T531 901Q531 927 515 944T472 962Q442 962 419 939T396 882Q396 856 413 839T455 821Z" />
<glyph unicode="&#xc6;" horiz-adv-x="934" d="M-49 0L382 700H996L981 632H490L534 387H791L777 320H546L592 68H861L847 0H529L489 220H166L32 0H-49ZM207 286H478L416 629L207 286Z" />
<glyph unicode="&#xc7;" horiz-adv-x="709" d="M341 -228Q307 -228 278 -216T231 -181L264 -151Q296 -186 342 -186Q373 -186 392 -172T412 -134Q412 -114 396 -103T351 -91H322L362 -9Q276 -1 209 43T103 159T64 319Q64 399 94 469T176 594T298 678T446 709Q533
709 602 677T718 584L661 532Q626 583 569 611T442 639Q379 639 325 615T229 547T164 446T141 322Q141 247 175 188T267 94T401 59Q463 59 522 82T627 148L667 95Q612 46 544 19T405 -11L382 -56Q419 -60 439 -79T460 -129Q460 -157 445 -179T402 -215T341 -228Z"
/>
<glyph unicode="&#xc8;" horiz-adv-x="604" d="M22 0L171 700H662L647 632H232L179 387H451L437 320H165L111 68H531L517 0H22ZM409 799L288 915H381L472 799H409Z" />
<glyph unicode="&#xc9;" horiz-adv-x="604" d="M22 0L171 700H662L647 632H232L179 387H451L437 320H165L111 68H531L517 0H22ZM379 799L496 915H591L446 799H379Z" />
<glyph unicode="&#xca;" horiz-adv-x="604" d="M22 0L171 700H662L647 632H232L179 387H451L437 320H165L111 68H531L517 0H22ZM288 795L416 916H495L571 795H513L449 875L350 795H288Z" />
<glyph unicode="&#xcb;" horiz-adv-x="604" d="M22 0L171 700H662L647 632H232L179 387H451L437 320H165L111 68H531L517 0H22ZM350 801Q331 801 319 813T307 845Q307 866 323 882T361 899Q379 899 391 886T404 855Q404 834 388 818T350 801ZM523 801Q505 801
493 813T480 845Q480 866 496 882T535 899Q553 899 565 886T577 855Q577 834 561 818T523 801Z" />
<glyph unicode="&#xcc;" horiz-adv-x="227" d="M22 0L171 700H246L97 0H22ZM208 799L87 915H180L271 799H208Z" />
<glyph unicode="&#xcd;" horiz-adv-x="227" d="M22 0L171 700H246L97 0H22ZM178 799L295 915H390L245 799H178Z" />
<glyph unicode="&#xce;" horiz-adv-x="227" d="M22 0L171 700H246L97 0H22ZM87 795L215 916H294L370 795H312L248 875L149 795H87Z" />
<glyph unicode="&#xcf;" horiz-adv-x="227" d="M22 0L171 700H246L97 0H22ZM149 801Q130 801 118 813T106 845Q106 866 122 882T160 899Q178 899 190 886T203 855Q203 834 187 818T149 801ZM322 801Q304 801 292 813T279 845Q279 866 295 882T334 899Q352 899
364 886T376 855Q376 834 360 818T322 801Z" />
<glyph unicode="&#xd0;" horiz-adv-x="727" d="M43 0L110 317H25L39 383H125L192 700H390Q461 700 519 678T620 615T684 517T707 391Q707 310 676 239T588 115T457 31T299 0H43ZM133 70H309Q376 70 434 94T536 163T605 265T630 389Q630 461 600 515T514 600T386
630H252L200 383H385L372 317H185L133 70Z" />
<glyph unicode="&#xd1;" horiz-adv-x="711" d="M22 0L171 700H243L537 123L659 700H730L581 0H518L217 592L93 0H22ZM356 798L307 813Q348 904 408 904Q436 904 460 890T506 861T549 847Q565 847 576 858T601 900L651 885Q631 838 606 816T548 793Q520 793 496
807T450 835T407 850Q392 850 380 838T356 798Z" />
<glyph unicode="&#xd2;" horiz-adv-x="794" d="M391 -11Q321 -11 261 14T157 84T87 189T62 320Q62 400 92 470T174 595T295 680T442 711Q512 711 572 686T676 616T746 511T771 380Q771 300 741 230T659 105T538 20T391 -11ZM396 60Q458 60 512 85T607 153T671
254T695 376Q695 451 662 511T570 605T437 640Q376 640 322 615T226 547T162 446T138 324Q138 249 171 190T263 95T396 60ZM446 799L325 915H418L509 799H446Z" />
<glyph unicode="&#xd3;" horiz-adv-x="794" d="M391 -11Q321 -11 261 14T157 84T87 189T62 320Q62 400 92 470T174 595T295 680T442 711Q512 711 572 686T676 616T746 511T771 380Q771 300 741 230T659 105T538 20T391 -11ZM396 60Q458 60 512 85T607 153T671
254T695 376Q695 451 662 511T570 605T437 640Q376 640 322 615T226 547T162 446T138 324Q138 249 171 190T263 95T396 60ZM416 799L533 915H628L483 799H416Z" />
<glyph unicode="&#xd4;" horiz-adv-x="794" d="M391 -11Q321 -11 261 14T157 84T87 189T62 320Q62 400 92 470T174 595T295 680T442 711Q512 711 572 686T676 616T746 511T771 380Q771 300 741 230T659 105T538 20T391 -11ZM396 60Q458 60 512 85T607 153T671
254T695 376Q695 451 662 511T570 605T437 640Q376 640 322 615T226 547T162 446T138 324Q138 249 171 190T263 95T396 60ZM325 795L453 916H532L608 795H550L486 875L387 795H325Z" />
<glyph unicode="&#xd5;" horiz-adv-x="794" d="M391 -11Q321 -11 261 14T157 84T87 189T62 320Q62 400 92 470T174 595T295 680T442 711Q512 711 572 686T676 616T746 511T771 380Q771 300 741 230T659 105T538 20T391 -11ZM396 60Q458 60 512 85T607 153T671
254T695 376Q695 451 662 511T570 605T437 640Q376 640 322 615T226 547T162 446T138 324Q138 249 171 190T263 95T396 60ZM352 798L303 813Q344 904 404 904Q432 904 456 890T502 861T545 847Q561 847 572 858T597 900L647 885Q627 838 602 816T544 793Q516 793
492 807T446 835T403 850Q388 850 376 838T352 798Z" />
<glyph unicode="&#xd6;" horiz-adv-x="794" d="M391 -11Q321 -11 261 14T157 84T87 189T62 320Q62 400 92 470T174 595T295 680T442 711Q512 711 572 686T676 616T746 511T771 380Q771 300 741 230T659 105T538 20T391 -11ZM396 60Q458 60 512 85T607 153T671
254T695 376Q695 451 662 511T570 605T437 640Q376 640 322 615T226 547T162 446T138 324Q138 249 171 190T263 95T396 60ZM387 801Q368 801 356 813T344 845Q344 866 360 882T398 899Q416 899 428 886T441 855Q441 834 425 818T387 801ZM560 801Q542 801 530 813T517
845Q517 866 533 882T572 899Q590 899 602 886T614 855Q614 834 598 818T560 801Z" />
<glyph unicode="&#xd7;" horiz-adv-x="599" d="M134 161L104 202L284 359L171 516L216 555L330 399L511 557L544 516L360 357L475 200L427 161L314 317L134 161Z" />
<glyph unicode="&#xd8;" horiz-adv-x="794" d="M391 -11Q327 -11 271 10T170 71L98 0H17L132 112Q99 154 81 207T62 320Q62 400 92 470T174 595T295 680T442 711Q507 711 562 690T661 631L732 700H814L701 589Q734 547 752 494T771 380Q771 300 741 230T659 105T538
20T391 -11ZM186 166L607 578Q574 607 531 623T437 640Q376 640 322 615T226 547T162 446T138 324Q138 279 151 239T186 166ZM396 60Q458 60 512 85T607 153T671 254T695 376Q695 422 682 462T646 535L224 124Q258 94 302 77T396 60Z" />
<glyph unicode="&#xd9;" horiz-adv-x="690" d="M318 -11Q226 -11 164 29T78 140T73 303L157 700H233L147 299Q132 229 149 175T210 91T321 60Q410 60 473 122T560 293L647 700H723L635 290Q615 193 571 126T463 24T318 -11ZM437 799L316 915H409L500 799H437Z" />
<glyph unicode="&#xda;" horiz-adv-x="690" d="M318 -11Q226 -11 164 29T78 140T73 303L157 700H233L147 299Q132 229 149 175T210 91T321 60Q410 60 473 122T560 293L647 700H723L635 290Q615 193 571 126T463 24T318 -11ZM407 799L524 915H619L474 799H407Z" />
<glyph unicode="&#xdb;" horiz-adv-x="690" d="M318 -11Q226 -11 164 29T78 140T73 303L157 700H233L147 299Q132 229 149 175T210 91T321 60Q410 60 473 122T560 293L647 700H723L635 290Q615 193 571 126T463 24T318 -11ZM316 795L444 916H523L599 795H541L477
875L378 795H316Z" />
<glyph unicode="&#xdc;" horiz-adv-x="690" d="M318 -11Q226 -11 164 29T78 140T73 303L157 700H233L147 299Q132 229 149 175T210 91T321 60Q410 60 473 122T560 293L647 700H723L635 290Q615 193 571 126T463 24T318 -11ZM378 801Q359 801 347 813T335 845Q335
866 351 882T389 899Q407 899 419 886T432 855Q432 834 416 818T378 801ZM551 801Q533 801 521 813T508 845Q508 866 524 882T563 899Q581 899 593 886T605 855Q605 834 589 818T551 801Z" />
<glyph unicode="&#xdd;" horiz-adv-x="627" d="M221 0L281 286L98 700H178L331 354L628 700H719L357 282L297 0H221ZM372 799L489 915H584L439 799H372Z" />
<glyph unicode="&#xde;" horiz-adv-x="634" d="M22 0L171 700H246L216 558H413Q474 558 518 536T586 475T611 380Q611 311 579 257T492 173T364 142H127L97 0H22ZM141 209H363Q414 209 453 230T513 288T535 375Q535 428 500 459T401 490H201L141 209Z" />
<glyph unicode="&#xdf;" horiz-adv-x="609" d="M396 -12Q334 -12 283 10T197 80L248 119Q275 80 313 63T397 45Q446 45 475 67T504 126Q504 150 487 167T432 201L361 233Q319 252 300 275T281 330Q281 363 298 385T343 422T400 449T458 473T502 504T520 550Q520
578 502 600T453 635T383 649Q304 649 253 608T184 484L80 0H10L114 489Q137 597 207 654T384 711Q445 711 491 692T564 638T591 559Q591 518 574 492T529 449T471 421T413 399T369 375T351 340Q351 323 362 310T401 284L471 252Q525 227 548 200T571 132Q571 91
548 59T486 7T396 -12Z" />
<glyph unicode="&#xe0;" horiz-adv-x="506" d="M187 -7Q110 -7 63 31T16 133Q16 182 41 218T112 275T220 296Q264 296 305 285T380 253L393 312Q407 380 378 414T274 448Q242 448 207 439T124 409L104 468Q156 490 201 500T286 510Q354 510 398 487T459 421T464
317L397 0H326L335 41Q301 17 265 5T187 -7ZM206 50Q245 50 280 62T348 101L368 195Q311 242 219 242Q161 242 123 213T85 140Q85 98 117 74T206 50ZM543 600L422 716H515L606 600H543Z" />
<glyph unicode="&#xe1;" horiz-adv-x="506" d="M187 -7Q110 -7 63 31T16 133Q16 182 41 218T112 275T220 296Q264 296 305 285T380 253L393 312Q407 380 378 414T274 448Q242 448 207 439T124 409L104 468Q156 490 201 500T286 510Q354 510 398 487T459 421T464
317L397 0H326L335 41Q301 17 265 5T187 -7ZM206 50Q245 50 280 62T348 101L368 195Q311 242 219 242Q161 242 123 213T85 140Q85 98 117 74T206 50ZM513 600L630 716H725L580 600H513Z" />
<glyph unicode="&#xe2;" horiz-adv-x="506" d="M187 -7Q110 -7 63 31T16 133Q16 182 41 218T112 275T220 296Q264 296 305 285T380 253L393 312Q407 380 378 414T274 448Q242 448 207 439T124 409L104 468Q156 490 201 500T286 510Q354 510 398 487T459 421T464
317L397 0H326L335 41Q301 17 265 5T187 -7ZM206 50Q245 50 280 62T348 101L368 195Q311 242 219 242Q161 242 123 213T85 140Q85 98 117 74T206 50ZM422 596L550 717H629L705 596H647L583 676L484 596H422Z" />
<glyph unicode="&#xe3;" horiz-adv-x="506" d="M187 -7Q110 -7 63 31T16 133Q16 182 41 218T112 275T220 296Q264 296 305 285T380 253L393 312Q407 380 378 414T274 448Q242 448 207 439T124 409L104 468Q156 490 201 500T286 510Q354 510 398 487T459 421T464
317L397 0H326L335 41Q301 17 265 5T187 -7ZM206 50Q245 50 280 62T348 101L368 195Q311 242 219 242Q161 242 123 213T85 140Q85 98 117 74T206 50ZM449 599L400 614Q441 705 501 705Q529 705 553 691T599 662T642 648Q658 648 669 659T694 701L744 686Q724 639
699 617T641 594Q613 594 589 608T543 636T500 651Q485 651 473 639T449 599Z" />
<glyph unicode="&#xe4;" horiz-adv-x="506" d="M187 -7Q110 -7 63 31T16 133Q16 182 41 218T112 275T220 296Q264 296 305 285T380 253L393 312Q407 380 378 414T274 448Q242 448 207 439T124 409L104 468Q156 490 201 500T286 510Q354 510 398 487T459 421T464
317L397 0H326L335 41Q301 17 265 5T187 -7ZM206 50Q245 50 280 62T348 101L368 195Q311 242 219 242Q161 242 123 213T85 140Q85 98 117 74T206 50ZM484 602Q465 602 453 614T441 646Q441 667 457 683T495 700Q513 700 525 687T538 656Q538 635 522 619T484 602ZM657
602Q639 602 627 614T614 646Q614 667 630 683T669 700Q687 700 699 687T711 656Q711 635 695 619T657 602Z" />
<glyph unicode="&#xe5;" horiz-adv-x="506" d="M187 -7Q110 -7 63 31T16 133Q16 182 41 218T112 275T220 296Q264 296 305 285T380 253L393 312Q407 380 378 414T274 448Q242 448 207 439T124 409L104 468Q156 490 201 500T286 510Q354 510 398 487T459 421T464
317L397 0H326L335 41Q301 17 265 5T187 -7ZM206 50Q245 50 280 62T348 101L368 195Q311 242 219 242Q161 242 123 213T85 140Q85 98 117 74T206 50ZM576 582Q532 582 504 609T475 680Q475 713 491 741T535 786T593 804Q638 804 666 777T695 706Q695 673 679 645T635
600T576 582ZM576 622Q607 622 629 646T652 702Q652 728 636 745T593 763Q563 763 540 740T517 683Q517 657 534 640T576 622Z" />
<glyph unicode="&#xe6;" horiz-adv-x="876" d="M198 -7Q119 -7 71 32T22 135Q22 184 47 220T117 276T224 296Q301 296 365 265L375 313Q388 380 358 414T256 448Q225 448 190 439T108 409L87 468Q140 490 184 500T270 510Q336 510 379 487T439 419Q475 461 523
485T624 509Q686 509 734 478T810 394T838 273Q838 263 838 252T835 228H434Q435 178 458 139T520 78T607 55Q644 55 679 66T742 96L780 45Q739 17 696 4T604 -9Q541 -9 491 15T408 83Q360 38 308 16T198 -7ZM441 287H769Q766 333 746 368T693 423T618 444Q576
444 540 424T478 368T441 287ZM211 50Q258 50 300 68T384 124Q376 142 371 162T364 205Q336 223 301 232T224 242Q166 242 129 214T91 141Q91 98 123 74T211 50Z" />
<glyph unicode="&#xe7;" horiz-adv-x="501" d="M209 -228Q175 -228 146 -216T99 -181L132 -151Q164 -186 210 -186Q241 -186 260 -172T280 -134Q280 -114 264 -103T219 -91H190L231 -7Q174 0 130 30T61 109T36 219Q36 278 58 330T118 423T207 486T314 509Q370
509 422 483T505 414L452 365Q425 403 389 422T309 442Q269 442 233 425T168 377T124 307T108 222Q108 176 129 138T187 78T269 56Q305 56 340 70T411 110L446 58Q366 -4 274 -9L250 -56Q287 -60 307 -79T328 -129Q328 -157 313 -179T270 -215T209 -228Z" />
<glyph unicode="&#xe8;" horiz-adv-x="552" d="M280 -9Q210 -9 155 21T69 104T38 226Q38 284 58 335T115 426T199 487T301 509Q362 509 410 478T486 394T514 273Q514 263 514 252T511 228H110Q111 178 134 139T196 78T283 55Q320 55 355 66T418 96L456 45Q415
17 372 4T280 -9ZM117 287H445Q442 333 422 368T369 423T294 444Q252 444 216 424T154 368T117 287ZM559 600L438 716H531L622 600H559Z" />
<glyph unicode="&#xe9;" horiz-adv-x="552" d="M280 -9Q210 -9 155 21T69 104T38 226Q38 284 58 335T115 426T199 487T301 509Q362 509 410 478T486 394T514 273Q514 263 514 252T511 228H110Q111 178 134 139T196 78T283 55Q320 55 355 66T418 96L456 45Q415
17 372 4T280 -9ZM117 287H445Q442 333 422 368T369 423T294 444Q252 444 216 424T154 368T117 287ZM529 600L646 716H741L596 600H529Z" />
<glyph unicode="&#xea;" horiz-adv-x="552" d="M280 -9Q210 -9 155 21T69 104T38 226Q38 284 58 335T115 426T199 487T301 509Q362 509 410 478T486 394T514 273Q514 263 514 252T511 228H110Q111 178 134 139T196 78T283 55Q320 55 355 66T418 96L456 45Q415
17 372 4T280 -9ZM117 287H445Q442 333 422 368T369 423T294 444Q252 444 216 424T154 368T117 287ZM438 596L566 717H645L721 596H663L599 676L500 596H438Z" />
<glyph unicode="&#xeb;" horiz-adv-x="552" d="M280 -9Q210 -9 155 21T69 104T38 226Q38 284 58 335T115 426T199 487T301 509Q362 509 410 478T486 394T514 273Q514 263 514 252T511 228H110Q111 178 134 139T196 78T283 55Q320 55 355 66T418 96L456 45Q415
17 372 4T280 -9ZM117 287H445Q442 333 422 368T369 423T294 444Q252 444 216 424T154 368T117 287ZM500 602Q481 602 469 614T457 646Q457 667 473 683T511 700Q529 700 541 687T554 656Q554 635 538 619T500 602ZM673 602Q655 602 643 614T630 646Q630 667 646
683T685 700Q703 700 715 687T727 656Q727 635 711 619T673 602Z" />
<glyph unicode="&#xec;" horiz-adv-x="198" d="M10 0L116 501H188L82 0H10ZM151 600L30 716H123L214 600H151Z" />
<glyph unicode="&#xed;" horiz-adv-x="198" d="M10 0L116 501H188L82 0H10ZM121 600L238 716H333L188 600H121Z" />
<glyph unicode="&#xee;" horiz-adv-x="198" d="M10 0L116 501H188L82 0H10ZM30 596L158 717H237L313 596H255L191 676L92 596H30Z" />
<glyph unicode="&#xef;" horiz-adv-x="198" d="M10 0L116 501H188L82 0H10ZM92 602Q73 602 61 614T49 646Q49 667 65 683T103 700Q121 700 133 687T146 656Q146 635 130 619T92 602ZM265 602Q247 602 235 614T222 646Q222 667 238 683T277 700Q295 700 307 687T319
656Q319 635 303 619T265 602Z" />
<glyph unicode="&#xf0;" horiz-adv-x="588" d="M260 -9Q196 -9 146 20T68 99T39 216Q39 273 60 322T117 410T202 469T305 491Q370 491 417 459T487 374Q489 434 474 487T428 583L317 530L297 579L392 624Q373 642 350 657T299 683L339 734Q407 703 456 654L576
711L597 663L490 612Q555 520 555 388Q555 300 534 228T473 102T379 20T260 -9ZM265 58Q318 58 362 87T434 163T462 267Q462 313 442 349T386 407T305 428Q252 428 207 399T135 323T108 218Q108 171 128 135T183 79T265 58Z" />
<glyph unicode="&#xf1;" horiz-adv-x="539" d="M10 0L116 501H188L177 451Q244 510 329 510Q388 510 428 483T486 409T490 302L426 0H354L416 293Q431 362 401 404T305 446Q264 446 228 428T162 376L82 0H10ZM483 599L434 614Q475 705 535 705Q563 705 587 691T633
662T676 648Q692 648 703 659T728 701L778 686Q758 639 733 617T675 594Q647 594 623 608T577 636T534 651Q519 651 507 639T483 599Z" />
<glyph unicode="&#xf2;" horiz-adv-x="581" d="M272 -10Q205 -10 153 21T70 106T39 229Q39 286 60 337T118 427T204 488T308 511Q375 511 427 480T510 395T541 272Q541 215 520 164T462 74T376 13T272 -10ZM275 56Q315 56 350 72T412 118T454 186T470 268Q470
319 449 359T390 422T305 445Q265 445 230 429T168 383T126 315T110 233Q110 183 131 143T190 79T275 56ZM569 600L448 716H541L632 600H569Z" />
<glyph unicode="&#xf3;" horiz-adv-x="581" d="M272 -10Q205 -10 153 21T70 106T39 229Q39 286 60 337T118 427T204 488T308 511Q375 511 427 480T510 395T541 272Q541 215 520 164T462 74T376 13T272 -10ZM275 56Q315 56 350 72T412 118T454 186T470 268Q470
319 449 359T390 422T305 445Q265 445 230 429T168 383T126 315T110 233Q110 183 131 143T190 79T275 56ZM539 600L656 716H751L606 600H539Z" />
<glyph unicode="&#xf4;" horiz-adv-x="581" d="M272 -10Q205 -10 153 21T70 106T39 229Q39 286 60 337T118 427T204 488T308 511Q375 511 427 480T510 395T541 272Q541 215 520 164T462 74T376 13T272 -10ZM275 56Q315 56 350 72T412 118T454 186T470 268Q470
319 449 359T390 422T305 445Q265 445 230 429T168 383T126 315T110 233Q110 183 131 143T190 79T275 56ZM448 596L576 717H655L731 596H673L609 676L510 596H448Z" />
<glyph unicode="&#xf5;" horiz-adv-x="581" d="M272 -10Q205 -10 153 21T70 106T39 229Q39 286 60 337T118 427T204 488T308 511Q375 511 427 480T510 395T541 272Q541 215 520 164T462 74T376 13T272 -10ZM275 56Q315 56 350 72T412 118T454 186T470 268Q470
319 449 359T390 422T305 445Q265 445 230 429T168 383T126 315T110 233Q110 183 131 143T190 79T275 56ZM475 599L426 614Q467 705 527 705Q555 705 579 691T625 662T668 648Q684 648 695 659T720 701L770 686Q750 639 725 617T667 594Q639 594 615 608T569 636T526
651Q511 651 499 639T475 599Z" />
<glyph unicode="&#xf6;" horiz-adv-x="581" d="M272 -10Q205 -10 153 21T70 106T39 229Q39 286 60 337T118 427T204 488T308 511Q375 511 427 480T510 395T541 272Q541 215 520 164T462 74T376 13T272 -10ZM275 56Q315 56 350 72T412 118T454 186T470 268Q470
319 449 359T390 422T305 445Q265 445 230 429T168 383T126 315T110 233Q110 183 131 143T190 79T275 56ZM510 602Q491 602 479 614T467 646Q467 667 483 683T521 700Q539 700 551 687T564 656Q564 635 548 619T510 602ZM683 602Q665 602 653 614T640 646Q640 667
656 683T695 700Q713 700 725 687T737 656Q737 635 721 619T683 602Z" />
<glyph unicode="&#xf7;" horiz-adv-x="599" d="M120 327L133 387H527L514 327H120ZM281 121Q260 121 246 135T231 170Q231 193 249 210T290 227Q310 227 324 213T339 177Q339 155 322 138T281 121ZM359 489Q338 489 324 503T309 538Q309 561 327 578T368 595Q388
595 402 581T417 545Q417 523 400 506T359 489Z" />
<glyph unicode="&#xf8;" horiz-adv-x="580" d="M272 -10Q226 -10 187 5T117 47L69 0H-1L84 83Q62 113 51 150T39 229Q39 286 60 337T118 427T204 488T308 511Q353 511 392 496T462 454L510 501H581L496 418Q517 388 529 351T541 272Q541 215 520 164T462 74T376
13T272 -10ZM136 134L412 405Q391 424 364 434T305 445Q265 445 230 429T168 383T126 315T110 233Q110 205 116 180T136 134ZM275 56Q315 56 350 72T412 118T454 186T470 268Q470 296 463 321T444 367L167 96Q189 77 216 67T275 56Z" />
<glyph unicode="&#xf9;" horiz-adv-x="538" d="M209 -9Q150 -9 109 18T52 93T47 200L111 501H183L121 208Q106 139 137 97T232 55Q274 55 311 73T376 127L456 501H528L421 0H349L360 50Q293 -9 209 -9ZM567 600L446 716H539L630 600H567Z" />
<glyph unicode="&#xfa;" horiz-adv-x="538" d="M209 -9Q150 -9 109 18T52 93T47 200L111 501H183L121 208Q106 139 137 97T232 55Q274 55 311 73T376 127L456 501H528L421 0H349L360 50Q293 -9 209 -9ZM537 600L654 716H749L604 600H537Z" />
<glyph unicode="&#xfb;" horiz-adv-x="538" d="M209 -9Q150 -9 109 18T52 93T47 200L111 501H183L121 208Q106 139 137 97T232 55Q274 55 311 73T376 127L456 501H528L421 0H349L360 50Q293 -9 209 -9ZM446 596L574 717H653L729 596H671L607 676L508 596H446Z" />
<glyph unicode="&#xfc;" horiz-adv-x="538" d="M209 -9Q150 -9 109 18T52 93T47 200L111 501H183L121 208Q106 139 137 97T232 55Q274 55 311 73T376 127L456 501H528L421 0H349L360 50Q293 -9 209 -9ZM508 602Q489 602 477 614T465 646Q465 667 481 683T519 700Q537
700 549 687T562 656Q562 635 546 619T508 602ZM681 602Q663 602 651 614T638 646Q638 667 654 683T693 700Q711 700 723 687T735 656Q735 635 719 619T681 602Z" />
<glyph unicode="&#xfd;" horiz-adv-x="501" d="M-6 -214Q-20 -214 -34 -212T-61 -206L-47 -140Q-39 -143 -28 -144T-4 -146Q28 -146 55 -128T106 -73L154 1L58 501H135L210 86L468 501H549L178 -88Q136 -155 93 -184T-6 -214ZM517 600L634 716H729L584 600H517Z" />
<glyph unicode="&#xfe;" horiz-adv-x="577" d="M-34 -205L159 700L234 717L181 466Q243 508 318 508Q382 508 431 478T510 396T539 278Q539 219 518 167T459 76T371 14T264 -9Q213 -9 170 10T95 64L38 -205H-34ZM303 443Q264 443 229 430T164 390L111 138Q131
101 172 79T262 57Q320 57 366 86T440 164T468 272Q468 322 447 360T389 421T303 443Z" />
<glyph unicode="&#xff;" horiz-adv-x="501" d="M-6 -214Q-20 -214 -34 -212T-61 -206L-47 -140Q-39 -143 -28 -144T-4 -146Q28 -146 55 -128T106 -73L154 1L58 501H135L210 86L468 501H549L178 -88Q136 -155 93 -184T-6 -214ZM488 602Q469 602 457 614T445 646Q445
667 461 683T499 700Q517 700 529 687T542 656Q542 635 526 619T488 602ZM661 602Q643 602 631 614T618 646Q618 667 634 683T673 700Q691 700 703 687T715 656Q715 635 699 619T661 602Z" />
<glyph unicode="&#x2013;" horiz-adv-x="537" d="M61 314H501L487 248H47L61 314Z" />
<glyph unicode="&#x2014;" horiz-adv-x="683" d="M61 314H648L634 248H47L61 314Z" />
<glyph unicode="&#x2018;" horiz-adv-x="250" d="M291 719L190 508H110L233 719H291Z" />
<glyph unicode="&#x2019;" horiz-adv-x="250" d="M124 508L225 719H305L182 508H124Z" />
<glyph unicode="&#x201a;" horiz-adv-x="250" d="M-37 -137L64 74H144L21 -137H-37Z" />
<glyph unicode="&#x201c;" horiz-adv-x="386" d="M291 719L190 508H110L233 719H291ZM427 719L326 508H246L369 719H427Z" />
<glyph unicode="&#x201d;" horiz-adv-x="386" d="M260 508L361 719H441L318 508H260ZM124 508L225 719H305L182 508H124Z" />
<glyph unicode="&#x201e;" horiz-adv-x="386" d="M99 -137L200 74H280L157 -137H99ZM-37 -137L64 74H144L21 -137H-37Z" />
<glyph unicode="&#x2022;" horiz-adv-x="322" d="M172 253Q135 253 109 278T83 341Q83 371 98 397T139 438T194 454Q231 454 256 429T282 366Q282 336 267 310T226 269T172 253Z" />
<glyph unicode="&#x2039;" horiz-adv-x="381" d="M393 501L112 248L283 0H206L29 251L313 501H393Z" />
<glyph unicode="&#x203a;" horiz-adv-x="389" d="M-4 0L277 253L106 501H183L360 250L76 0H-4Z" />
</font>
</defs>
</svg>
