<?xml version="1.0" standalone="no"?>
<!DOCTYPE svg PUBLIC "-//W3C//DTD SVG 1.1//EN" "http://www.w3.org/Graphics/SVG/1.1/DTD/svg11.dtd">
<svg xmlns="http://www.w3.org/2000/svg">
<defs >
<font id="RedHatDisplay" horiz-adv-x="526" ><font-face
    font-family="Red Hat Display"
    units-per-em="1000"
    panose-1="2 1 3 3 4 2 1 6 3 3"
    ascent="1018"
    descent="-305"
    alphabetic="0" />
<glyph unicode=" " horiz-adv-x="215" />
<glyph unicode="!" horiz-adv-x="198" d="M69 194L60 705H137L128 194H69ZM99 -6Q78 -6 63 9T48 45Q48 66 63 81T99 96Q120 96 135 81T150 45Q150 24 135 9T99 -6Z" />
<glyph unicode="&quot;" horiz-adv-x="318" d="M69 497L58 701H133L122 497H69ZM197 497L186 701H261L250 497H197Z" />
<glyph unicode="#" horiz-adv-x="692" d="M79 0L142 219H30V277H158L200 423H80V481H216L279 700H347L284 481H482L545 700H613L550 481H662V423H534L492 277H612V219H476L413 0H345L408 219H210L147 0H79ZM226 277H424L466 423H268L226 277Z" />
<glyph unicode="$" horiz-adv-x="567" d="M256 -67V21Q187 27 127 55T22 133L68 182Q148 96 256 81V327L221 334Q121 356 79 394T37 504Q37 557 65 597T142 659T256 682V767H307V680Q365 673 420 652T524 595L486 539Q440 571 396 590T307 616V385L341 378Q449
354 493 315T537 205Q537 152 508 111T427 46T307 19V-67H256ZM256 395V620Q189 619 148 589T106 510Q106 479 118 458T160 423T240 398L256 395ZM307 79Q377 83 421 116T466 202Q466 233 453 253T409 288T322 314L307 317V79Z" />
<glyph unicode="%" horiz-adv-x="739" d="M176 345Q109 345 68 395T27 525Q27 605 68 655T176 705Q241 705 282 655T324 525Q323 445 282 395T176 345ZM176 391Q220 391 246 427T273 525Q273 587 247 623T176 660Q131 660 105 624T78 525Q79 464 105 428T176 391ZM142
0L535 700H597L203 0H142ZM566 -5Q499 -5 458 45T417 175Q417 255 458 305T566 355Q631 355 672 305T714 175Q713 95 672 45T566 -5ZM566 41Q610 41 636 77T663 175Q663 237 637 273T566 310Q521 310 495 274T468 175Q469 114 495 78T566 41Z" />
<glyph unicode="&amp;" horiz-adv-x="653" d="M257 -11Q188 -11 136 14T55 84T26 188Q26 230 40 263T89 327T181 389Q146 433 132 469T117 546Q117 593 139 630T199 689T286 711Q332 711 367 693T423 642T444 566Q444 517 417 478T332 405L282 375Q323 329 372
281T472 186Q497 226 513 274T540 374L608 363Q595 299 574 244T522 141Q554 113 586 88T646 40L601 -13Q573 9 543 33T481 84Q438 38 381 14T257 -11ZM243 421L300 454Q337 476 355 503T374 564Q374 601 348 626T284 651Q242 651 215 622T187 547Q187 516 199
488T243 421ZM261 52Q311 52 354 71T432 128Q374 181 319 235T220 341Q173 316 146 293T107 246T96 190Q96 128 141 90T261 52Z" />
<glyph unicode="&apos;" horiz-adv-x="191" d="M69 497L58 701H133L122 497H69Z" />
<glyph unicode="(" horiz-adv-x="389" d="M313 -213Q192 -141 128 -23T64 249Q64 402 128 520T313 710L352 660Q248 599 192 492T135 249Q135 113 191 6T352 -162L313 -213Z" />
<glyph unicode=")" horiz-adv-x="389" d="M76 716Q197 644 261 526T325 254Q325 101 261 -17T76 -207L37 -157Q141 -96 197 11T254 254Q254 390 198 497T37 665L76 716Z" />
<glyph unicode="*" horiz-adv-x="446" d="M196 341L198 479L79 406L50 451L174 524L54 596L83 640L197 569L196 700H250L249 570L362 640L392 596L272 524L397 451L366 406L248 479L250 341H196Z" />
<glyph unicode="+" horiz-adv-x="600" d="M269 145V326H102V386H269V567H331V386H498V326H331V145H269Z" />
<glyph unicode="," horiz-adv-x="250" d="M44 -137L102 74H182L102 -137H44Z" />
<glyph unicode="-" horiz-adv-x="447" d="M49 248V314H398V248H49Z" />
<glyph unicode="." horiz-adv-x="250" d="M125 -6Q104 -6 89 9T74 45Q74 66 89 81T125 96Q146 96 161 81T176 45Q176 24 161 9T125 -6Z" />
<glyph unicode="/" horiz-adv-x="457" d="M-67 -204L354 700H429L7 -204H-67Z" />
<glyph unicode="0" horiz-adv-x="662" d="M331 -11Q247 -11 183 35T83 162T46 350Q46 456 82 537T183 665T331 711Q415 711 479 665T579 538T616 350Q616 244 580 163T479 35T331 -11ZM331 54Q396 54 443 90T517 194T543 350Q543 440 517 506T444 609T331 646Q267
646 219 610T145 507T119 350Q119 261 145 194T219 91T331 54Z" />
<glyph unicode="1" horiz-adv-x="289" d="M146 0V623L28 571V638L172 700H219V0H146Z" />
<glyph unicode="2" horiz-adv-x="542" d="M305 0V53L585 359Q618 395 636 422T662 474T670 525Q670 578 629 612T523 647Q474 647 432 628T338 562L296 612Q351 662 407 686T524 711Q587 711 636 688T713 623T741 529Q741 494 732 465T700 402T634 321L395 62L756
63V0H305Z" />
<glyph unicode="3" horiz-adv-x="582" d="M540 -11Q468 -11 406 14T295 88L343 135Q387 91 433 72T539 52Q590 52 629 70T691 120T713 193Q713 232 694 262T640 310T562 327H479V389H559Q616 389 651 424T687 515Q687 552 667 582T613 629T535 647Q481 647 439
628T352 562L304 610Q351 660 410 685T536 711Q600 711 650 686T730 618T759 519Q759 464 723 421T628 360Q699 344 742 298T785 191Q785 133 754 87T667 15T540 -11Z" />
<glyph unicode="4" horiz-adv-x="619" d="M425 0V187H27V245L420 700H498V250H582V187H498V0H425ZM117 250H425V607L117 250Z" />
<glyph unicode="5" horiz-adv-x="568" d="M533 -11Q395 -11 295 84L340 133Q386 90 431 71T534 51Q585 51 624 72T684 131T706 218Q706 288 659 331T534 374Q494 374 456 365T377 334L327 350L343 700H741V637H405L394 395Q434 415 471 423T549 432Q618 432 669
406T749 332T778 221Q778 152 747 100T661 19T533 -11Z" />
<glyph unicode="6" horiz-adv-x="612" d="M331 -10Q250 -10 189 33T92 151T57 326Q57 442 96 528T206 663T371 711Q415 711 458 699T535 664L499 608Q468 626 434 636T365 646Q293 646 241 609T160 501T129 333Q168 383 222 411T334 439Q402 439 455 411T538 334T568
221Q568 155 537 103T453 20T331 -10ZM324 380Q269 380 219 353T131 277Q139 210 165 160T234 81T330 53Q378 53 415 74T474 134T496 219Q496 266 474 302T414 359T324 380Z" />
<glyph unicode="7" horiz-adv-x="555" d="M359 0L707 637H287V700H785V644L441 0H359Z" />
<glyph unicode="8" horiz-adv-x="615" d="M300 -11Q228 -11 172 15T84 86T51 189Q51 232 72 268T130 331T216 369Q155 386 117 430T78 529Q78 581 107 622T186 687T300 711Q364 711 414 687T493 622T522 529Q522 474 484 430T384 369Q457 352 503 303T549 189Q549
132 517 87T429 15T300 -11ZM300 399Q343 399 377 416T432 461T452 526Q452 562 432 591T378 636T300 653Q257 653 223 637T168 591T148 526Q148 490 168 462T222 416T300 399ZM300 47Q351 47 391 66T454 118T478 192Q478 233 455 266T391 318T300 337Q249 337
209 318T146 266T122 192Q122 151 145 118T209 66T300 47Z" />
<glyph unicode="9" horiz-adv-x="612" d="M281 711Q362 711 423 668T520 550T555 375Q555 259 516 173T407 38T241 -10Q198 -10 155 2T77 37L113 93Q144 75 178 65T247 55Q319 55 371 92T453 200T483 368Q444 318 390 290T278 262Q210 262 157 290T74 368T44 480Q44
547 75 599T159 681T281 711ZM288 321Q343 321 393 348T481 424Q474 492 447 542T378 620T282 648Q235 648 197 627T138 568T116 482Q116 435 138 399T199 342T288 321Z" />
<glyph unicode=":" horiz-adv-x="250" d="M125 -6Q104 -6 89 9T74 45Q74 66 89 81T125 96Q146 96 161 81T176 45Q176 24 161 9T125 -6ZM125 410Q104 410 89 425T74 461Q74 482 89 497T125 512Q146 512 161 497T176 461Q176 440 161 425T125 410Z" />
<glyph unicode=";" horiz-adv-x="250" d="M133 410Q112 410 97 425T82 461Q82 482 97 497T133 512Q154 512 169 497T184 461Q184 440 169 425T133 410ZM293 -137L351 74H431L351 -137H293Z" />
<glyph unicode="&lt;" horiz-adv-x="600" d="M423 103L107 349L424 594L461 547L200 350L461 151L423 103Z" />
<glyph unicode="=" horiz-adv-x="600" d="M102 501V561H498V501H102ZM102 408V468H498V408H102Z" />
<glyph unicode="&gt;" horiz-adv-x="600" d="M177 594L493 348L176 103L139 150L400 347L139 546L177 594Z" />
<glyph unicode="?" horiz-adv-x="506" d="M188 199Q186 245 193 278T219 338T270 388L314 419Q358 451 375 477T393 537Q393 568 374 592T322 630T248 645Q199 645 156 622T78 555L20 593Q49 631 85 657T164 697T252 711Q313 711 361 689T438 627T466 538Q466
504 456 477T420 423T349 366L315 342Q278 317 263 283T252 199H188ZM220 -6Q199 -6 184 9T169 45Q169 66 184 81T220 96Q241 96 256 81T271 45Q271 24 256 9T220 -6Z" />
<glyph unicode="@" horiz-adv-x="776" d="M403 -144Q326 -144 261 -118T147 -44T71 68T44 207Q44 286 71 353T146 470T259 548T400 576Q471 576 531 553T637 488T707 390T733 269Q733 208 710 160T647 83T556 55Q491 55 463 96Q438 74 411 63T357 51Q316 51 284
71T233 125T214 202Q214 251 236 291T297 355T383 379Q445 379 484 340L489 366H545L506 174Q499 138 513 119T562 99Q597 99 625 121T669 181T685 267Q685 343 647 403T545 497T398 532Q334 532 279 508T181 439T116 336T93 209Q93 120 133 51T245 -59T406 -99Q500
-99 576 -58L594 -99Q551 -121 503 -132T403 -144ZM369 98Q415 98 450 133Q449 144 449 155T452 179L473 285Q459 307 435 319T382 331Q351 331 326 314T285 269T269 206Q269 158 297 128T369 98Z" />
<glyph unicode="A" horiz-adv-x="679" d="M4 0L294 700H387L675 0H591L503 220H173L84 0H4ZM200 286H476L338 629L200 286Z" />
<glyph unicode="B" horiz-adv-x="657" d="M77 0V700H361Q429 700 478 678T555 616T582 520Q582 466 554 426T475 365Q538 346 574 302T611 197Q611 137 582 93T499 24T373 0H77ZM154 395H357Q425 395 465 427T506 514Q506 569 466 601T357 633H154V395ZM154 67H367Q443
67 488 103T533 199Q533 259 488 295T367 331H154V67Z" />
<glyph unicode="C" horiz-adv-x="722" d="M407 -11Q331 -11 265 16T149 93T72 208T44 350Q44 426 71 491T149 606T265 683T407 711Q462 711 512 698T606 659T684 596L633 542Q592 589 532 614T407 640Q346 640 294 618T204 557T144 465T122 350Q122 289 143 236T204
144T295 82T409 60Q474 60 533 85T632 156L682 104Q647 68 604 42T510 3T407 -11Z" />
<glyph unicode="D" horiz-adv-x="720" d="M154 70H312Q373 70 425 91T516 150T576 239T598 350Q598 410 577 461T516 550T425 609T312 630H154V70ZM77 0V700H308Q388 700 455 674T571 601T648 490T676 350Q676 274 649 210T573 99T456 26T308 0H77Z" />
<glyph unicode="E" horiz-adv-x="616" d="M77 0V700H578V632H154V387H431V320H154V68H582V0H77Z" />
<glyph unicode="F" horiz-adv-x="607" d="M77 0V700H578V632H154V382H432V315H154V0H77Z" />
<glyph unicode="G" horiz-adv-x="788" d="M406 -11Q330 -11 265 17T150 94T72 209T44 350Q44 425 71 490T148 605T263 683T405 711Q486 711 558 681T681 596L629 543Q589 589 530 614T405 640Q345 640 294 618T204 557T144 465T122 350Q122 289 143 236T203 144T293
82T405 60Q476 60 533 91T626 176T668 298H417V366H746V335Q746 262 720 199T648 89T540 16T406 -11Z" />
<glyph unicode="H" horiz-adv-x="715" d="M77 0V700H154V387H561V700H638V0H561V318H154V0H77Z" />
<glyph unicode="I" horiz-adv-x="231" d="M77 0V700H154V0H77Z" />
<glyph unicode="J" horiz-adv-x="600" d="M271 -11Q181 -11 115 36T17 168L87 197Q114 128 160 94T272 60Q358 60 409 115T460 265V700H537V264Q537 180 505 118T413 23T271 -11Z" />
<glyph unicode="K" horiz-adv-x="617" d="M77 0V700H154V368L516 700H617L237 357L625 0H517L154 336V0H77Z" />
<glyph unicode="L" horiz-adv-x="604" d="M77 0V700H154V69H571V0H77Z" />
<glyph unicode="M" horiz-adv-x="847" d="M77 0V700H185L424 203L662 700H770V0H697V612L423 50L149 611V0H77Z" />
<glyph unicode="N" horiz-adv-x="725" d="M77 0V700H154L575 132V700H648V0H580L150 583V0H77Z" />
<glyph unicode="O" horiz-adv-x="809" d="M405 -11Q329 -11 264 16T149 93T72 208T44 350Q44 426 71 491T148 606T263 683T405 711Q480 711 545 684T660 607T737 492T765 350Q765 274 738 209T661 94T546 17T405 -11ZM405 60Q465 60 516 82T605 143T665 236T687
350Q687 412 666 464T606 556T516 618T405 640Q345 640 294 618T204 557T144 465T122 351Q122 289 143 236T203 144T293 82T405 60Z" />
<glyph unicode="P" horiz-adv-x="647" d="M77 0V700H381Q450 700 500 675T579 605T607 498Q607 437 579 392T500 321T381 295H154V0H77ZM154 362H375Q446 362 488 398T530 497Q530 559 488 595T375 631H154V362Z" />
<glyph unicode="Q" horiz-adv-x="809" d="M645 -16L596 43Q555 18 507 4T405 -11Q329 -11 264 16T149 93T72 208T44 350Q44 426 71 491T148 606T263 683T405 711Q480 711 545 684T660 607T737 492T765 350Q765 271 734 202T650 84L724 -5L645 -16ZM405 60Q445
60 481 70T548 99L448 218L527 230L602 140Q642 180 664 234T687 350Q687 412 666 464T606 556T516 618T405 640Q345 640 294 618T204 557T144 465T122 350Q122 289 143 236T203 144T293 82T405 60Z" />
<glyph unicode="R" horiz-adv-x="645" d="M77 0V700H377Q446 700 497 675T576 605T605 499Q605 430 565 381T456 311L613 0H528L378 301H154V0H77ZM154 366H372Q443 366 485 402T528 499Q528 559 486 595T372 631H154V366Z" />
<glyph unicode="S" horiz-adv-x="600" d="M304 -10Q221 -10 145 23T11 120L62 173Q116 115 177 86T307 57Q362 57 404 74T471 123T495 195Q495 249 458 278T334 321L233 337Q132 354 84 397T36 514Q36 572 67 616T153 684T282 709Q356 709 427 685T558 616L514
556Q399 643 279 643Q229 643 191 628T132 585T111 520Q111 471 144 445T253 407L353 391Q468 372 520 327T572 199Q572 138 538 91T444 17T304 -10Z" />
<glyph unicode="T" horiz-adv-x="617" d="M270 0V631H17V700H600V631H347V0H270Z" />
<glyph unicode="U" horiz-adv-x="704" d="M352 -11Q263 -11 198 26T98 133T63 296V700H140V296Q140 224 166 171T240 89T352 60Q417 60 464 89T538 171T564 296V700H641V296Q641 202 606 133T506 27T352 -11Z" />
<glyph unicode="V" horiz-adv-x="679" d="M291 0L4 700H87L340 72L597 700H675L384 0H291Z" />
<glyph unicode="W" horiz-adv-x="882" d="M186 0L35 700H113L232 122L405 700H480L653 124L773 700H848L697 0H619L442 593L264 0H186Z" />
<glyph unicode="X" horiz-adv-x="638" d="M3 0L273 363L20 700H114L319 422L524 700H614L364 364L635 0H542L318 305L93 0H3Z" />
<glyph unicode="Y" horiz-adv-x="639" d="M281 0V285L3 700H93L322 353L550 700H637L358 282V0H281Z" />
<glyph unicode="Z" horiz-adv-x="604" d="M24 0V55L469 632H28V700H570V645L123 68H578V0H24Z" />
<glyph unicode="[" horiz-adv-x="347" d="M57 -207V700H309V640H128V-147H309V-207H57Z" />
<glyph unicode="\" horiz-adv-x="462" d="M451 -204L30 700H107L529 -204H451Z" />
<glyph unicode="]" horiz-adv-x="347" d="M290 700V-207H38V-147H219V640H38V700H290Z" />
<glyph unicode="^" horiz-adv-x="536" d="M49 350L236 700H301L488 350H419L268 635L117 350H49Z" />
<glyph unicode="_" horiz-adv-x="482" d="M-1 -137V-80H483V-137H-1Z" />
<glyph unicode="`" horiz-adv-x="600" d="M290 600L167 716H263L355 600H290Z" />
<glyph unicode="a" horiz-adv-x="516" d="M221 -9Q166 -9 125 10T60 63T36 142Q36 213 90 254T236 295Q317 295 383 261V327Q383 387 349 417T250 448Q213 448 176 438T93 404L65 461Q119 487 165 499T257 511Q352 511 403 466T455 337V0H383V49Q349 20 309 6T221
-9ZM107 144Q107 102 142 76T234 49Q279 49 316 63T383 107V201Q352 222 317 231T238 241Q178 241 143 215T107 144Z" />
<glyph unicode="b" horiz-adv-x="590" d="M63 0V700L137 717V448Q201 509 298 509Q369 509 426 475T516 382T550 251Q550 178 517 120T426 27T297 -8Q253 -8 212 7T136 50V0H63ZM291 57Q344 57 386 82T452 151T477 250Q477 305 453 349T386 418T291 444Q244 444
204 426T137 374V126Q163 94 204 76T291 57Z" />
<glyph unicode="c" horiz-adv-x="513" d="M295 -9Q224 -9 166 25T74 119T40 251Q40 324 74 382T166 476T295 511Q350 511 401 491T491 432L444 378Q414 410 376 426T296 443Q245 443 204 418T138 349T113 251Q113 197 137 153T204 84T297 58Q338 58 374 74T443
121L489 71Q449 33 399 12T295 -9Z" />
<glyph unicode="d" horiz-adv-x="590" d="M292 -8Q222 -8 165 26T74 119T40 251Q40 324 73 382T164 474T293 509Q337 509 378 495T453 452V700L527 717V0H454V53Q388 -8 292 -8ZM299 57Q346 57 386 75T453 127V375Q427 407 387 425T299 444Q247 444 205 419T138
351T113 252Q113 197 137 153T204 83T299 57Z" />
<glyph unicode="e" horiz-adv-x="564" d="M298 -9Q226 -9 168 25T75 119T40 251Q40 323 73 381T162 474T287 509Q354 509 407 475T492 382T524 251V228H113Q119 179 144 140T211 79T301 56Q340 56 377 68T439 102L485 53Q443 22 398 7T298 -9ZM115 287H450Q444
332 421 367T362 423T285 444Q242 444 206 424T146 369T115 287Z" />
<glyph unicode="f" horiz-adv-x="374" d="M135 0V438H17V501H135V596Q135 670 175 709T290 748Q310 748 326 746T357 739V673Q340 678 326 680T295 683Q251 683 230 662T208 594V501H357V438H208V0H135Z" />
<glyph unicode="g" horiz-adv-x="586" d="M307 -214Q255 -214 204 -201T111 -162L143 -104Q188 -128 226 -139T304 -150Q375 -150 412 -116T449 -16V54Q380 -4 290 -4Q221 -4 164 30T74 122T40 253Q40 325 73 383T164 476T292 510Q335 510 375 495T450 451V501H523V-15Q523
-111 467 -162T307 -214ZM296 61Q344 61 384 79T449 130V376Q424 408 384 426T296 444Q244 444 203 419T137 351T113 253Q113 199 137 156T203 87T296 61Z" />
<glyph unicode="h" horiz-adv-x="549" d="M63 0V700L137 717V442Q196 511 295 511Q352 511 395 487T463 419T488 317V0H415V302Q415 369 378 407T275 446Q230 446 195 426T137 369V0H63Z" />
<glyph unicode="i" horiz-adv-x="200" d="M63 0V501H137V0H63ZM100 597Q80 597 65 612T50 648Q50 668 65 682T100 697Q121 697 135 683T150 647Q150 627 136 612T100 597Z" />
<glyph unicode="j" horiz-adv-x="200" d="M100 597Q80 597 65 612T50 647Q50 668 65 682T100 697Q121 697 135 683T150 647Q150 627 136 612T100 597ZM8 -214Q-6 -214 -18 -212T-38 -208V-146Q-22 -150 -1 -150Q34 -150 48 -134T63 -82V501H137V-88Q137 -149 104
-181T8 -214Z" />
<glyph unicode="k" horiz-adv-x="494" d="M63 0V700L137 717V275L399 501H489L214 263L502 0H401L137 240V0H63Z" />
<glyph unicode="l" horiz-adv-x="200" d="M63 0V700L137 717V0H63Z" />
<glyph unicode="m" horiz-adv-x="859" d="M63 0V501H137V446Q194 511 284 511Q337 511 378 487T442 420Q473 466 516 488T614 511Q669 511 710 487T774 419T798 317V0H725V302Q725 369 690 407T595 446Q554 446 520 426T462 364Q464 353 465 342T467 317V0H394V302Q394
369 359 407T265 446Q225 446 193 428T137 373V0H63Z" />
<glyph unicode="n" horiz-adv-x="549" d="M63 0V501H137V442Q196 511 295 511Q352 511 395 487T463 419T488 317V0H415V302Q415 369 378 407T275 446Q230 446 195 426T137 369V0H63Z" />
<glyph unicode="o" horiz-adv-x="592" d="M296 -10Q225 -10 167 24T74 118T40 250Q40 323 74 382T166 475T296 510Q368 510 426 476T518 382T552 250Q552 177 518 118T426 25T296 -10ZM296 56Q347 56 388 82T454 152T479 250Q479 305 455 348T389 418T296 444Q245
444 204 418T138 349T113 250Q113 196 137 152T203 82T296 56Z" />
<glyph unicode="p" horiz-adv-x="590" d="M63 -204V501H136V447Q201 509 298 509Q369 509 426 475T516 382T550 251Q550 178 517 120T426 27T297 -8Q253 -8 212 7T137 50V-204H63ZM291 57Q344 57 386 82T452 151T477 250Q477 305 453 349T386 418T291 444Q244
444 204 426T137 374V126Q163 94 204 76T291 57Z" />
<glyph unicode="q" horiz-adv-x="590" d="M453 -204V52Q387 -8 292 -8Q222 -8 165 26T74 119T40 251Q40 324 73 382T164 474T293 509Q338 509 379 494T454 452V501H527V-204H453ZM299 57Q346 57 386 75T453 127V375Q427 407 387 425T299 444Q247 444 205 419T138
351T113 252Q113 197 137 153T204 83T299 57Z" />
<glyph unicode="r" horiz-adv-x="346" d="M63 0V501H137V430Q160 469 195 490T277 512Q303 512 324 505V437Q311 442 298 444T272 446Q226 446 192 420T137 343V0H63Z" />
<glyph unicode="s" horiz-adv-x="446" d="M223 -10Q161 -10 107 10T12 68L57 116Q92 84 134 67T220 49Q280 49 318 74T356 139Q356 172 334 190T263 216L176 228Q101 239 65 273T28 365Q28 407 52 440T118 492T216 511Q271 511 319 495T413 445L374 395Q332 424
293 437T212 451Q160 451 128 428T96 368Q96 334 118 317T189 292L276 280Q351 270 388 236T426 143Q426 100 399 65T327 10T223 -10Z" />
<glyph unicode="t" horiz-adv-x="365" d="M260 -10Q195 -10 160 21T125 111V438H17V501H125V628L198 647V501H349V438H198V130Q198 90 216 73T275 55Q296 55 312 58T348 68V3Q329 -4 306 -7T260 -10Z" />
<glyph unicode="u" horiz-adv-x="549" d="M255 -10Q198 -10 154 14T86 82T61 184V501H134V199Q134 132 172 94T274 55Q319 55 354 75T412 133V501H486V0H412V58Q353 -10 255 -10Z" />
<glyph unicode="v" horiz-adv-x="513" d="M222 0L5 501H87L258 96L429 501H508L292 0H222Z" />
<glyph unicode="w" horiz-adv-x="703" d="M155 0L14 501H87L195 101L320 501H386L510 101L619 501H689L547 0H476L352 401L227 0H155Z" />
<glyph unicode="x" horiz-adv-x="491" d="M5 0L202 258L15 501H103L245 313L387 501H472L287 259L485 0H397L244 204L89 0H5Z" />
<glyph unicode="y" horiz-adv-x="510" d="M84 -214Q70 -214 58 -213T37 -209V-142Q54 -146 79 -146Q145 -146 179 -68L209 1L5 501H87L249 90L424 501H504L254 -78Q233 -126 209 -156T155 -200T84 -214Z" />
<glyph unicode="z" horiz-adv-x="463" d="M31 0V58L333 435H34V501H423V444L120 66H426V0H31Z" />
<glyph unicode="{" horiz-adv-x="382" d="M262 -214Q204 -214 168 -188T124 -116T138 -16L180 85Q203 141 183 179T107 218H28V279H107Q162 279 182 318T180 413L138 512Q115 568 123 613T168 684T262 711Q282 711 301 708T342 696L327 640Q310 646 296 648T265
651Q216 651 199 617T202 530L250 409Q272 354 249 309T171 249Q227 233 249 188T250 89L202 -33Q181 -85 198 -119T265 -154Q281 -154 295 -152T327 -143L342 -199Q320 -207 301 -210T262 -214Z" />
<glyph unicode="|" horiz-adv-x="274" d="M103 -204V700H171V-204H103Z" />
<glyph unicode="}" horiz-adv-x="382" d="M120 711Q178 711 214 685T258 613T244 513L202 412Q179 356 199 318T275 279H354V218H275Q220 218 200 179T202 84L244 -15Q267 -71 259 -116T214 -187T120 -214Q100 -214 81 -211T40 -199L55 -143Q72 -149 86 -151T117
-154Q166 -154 183 -120T180 -33L132 88Q110 143 133 188T211 248Q155 264 133 309T132 408L180 530Q201 582 184 616T117 651Q101 651 87 649T55 640L40 696Q62 704 81 707T120 711Z" />
<glyph unicode="~" horiz-adv-x="578" d="M97 301L40 308Q49 378 82 416T167 454Q187 454 209 448T260 425L340 385Q364 373 379 368T407 363Q469 363 482 454L538 447Q530 377 497 339T411 301Q392 301 370 307T318 329L238 369Q212 383 198 387T171 392Q110
392 97 301Z" />
<glyph unicode="&#xa0;" horiz-adv-x="215" />
<glyph unicode="&#xa1;" horiz-adv-x="198" d="M129 303L138 -208H61L70 303H129ZM99 503Q120 503 135 488T150 452Q150 431 135 416T99 401Q78 401 63 416T48 452Q48 473 63 488T99 503Z" />
<glyph unicode="&#xa2;" horiz-adv-x="515" d="M263 -118V-7Q200 1 150 36T70 128T40 251Q40 318 69 373T149 465T263 509V609H314V510Q364 507 410 487T491 432L444 378Q417 406 384 422T314 442V59Q349 62 382 77T443 121L489 71Q453 37 408 16T314 -8V-118H263ZM113
251Q113 203 132 163T186 96T263 61V440Q220 432 186 405T133 339T113 251Z" />
<glyph unicode="&#xa3;" horiz-adv-x="615" d="M457 -20Q444 -20 430 -19T400 -14L201 27Q191 29 181 30T162 31Q127 31 103 15T62 -37L8 -1Q33 44 66 67T144 94Q170 114 170 157Q170 160 170 165T167 185T160 230T145 312H40V369H135Q127 414 123 439T118 477T117
499Q117 564 143 611T217 685T332 711Q421 711 478 667T556 537L492 518Q477 581 436 614T332 648Q262 648 225 610T188 502Q188 494 189 483T194 445T207 369H417V312H217Q225 267 229 240T236 199T239 178T240 167Q240 118 214 89L413 49Q424 47 434 46T455 44Q517
44 549 104L604 69Q552 -20 457 -20Z" />
<glyph unicode="&#xa4;" horiz-adv-x="682" d="M85 64L46 104L139 198Q114 231 100 273T85 361Q85 408 99 449T140 523L46 618L86 659L180 564Q213 591 254 606T341 621Q387 621 428 606T502 564L596 659L635 619L540 524Q566 491 581 450T596 361Q596 315 582
274T542 199L636 104L596 63L502 157Q469 130 428 115T341 100Q295 100 253 115T178 158L85 64ZM341 167Q392 167 433 193T499 263T524 361Q524 416 500 459T434 529T341 555Q290 555 249 529T183 460T158 361Q158 307 182 263T248 193T341 167Z" />
<glyph unicode="&#xa5;" horiz-adv-x="641" d="M282 0V134H95V188H282V263H95V317H261L8 700H98L323 353L546 700H633L382 317H546V263H359V188H546V134H359V0H282Z" />
<glyph unicode="&#xa6;" horiz-adv-x="274" d="M103 288V700H171V288H103ZM103 -204V208H171V-204H103Z" />
<glyph unicode="&#xa7;" horiz-adv-x="566" d="M280 -50Q237 -50 191 -38T101 -2L130 51Q217 5 280 5Q329 5 356 26T384 84Q384 113 366 132T308 165L198 201Q122 226 91 258T59 345Q59 392 87 425T163 472Q113 510 113 573Q113 635 160 672T286 710Q329 710 375
697T465 661L435 608Q352 655 285 655Q236 655 209 634T181 576Q181 547 199 528T258 495L367 459Q444 434 475 402T507 314Q507 268 479 235T402 187Q452 149 452 86Q452 25 405 -12T280 -50ZM340 219Q387 224 414 248T442 309Q442 341 421 362T351 399L236 436Q233
437 231 438T226 440Q178 435 151 411T123 350Q123 319 144 298T214 260L329 223Q332 222 334 222T340 219Z" />
<glyph unicode="&#xa8;" horiz-adv-x="600" d="M213 611Q192 611 178 625T163 659Q163 679 177 693T213 707Q234 707 248 693T263 659Q263 639 249 625T213 611ZM387 611Q366 611 352 625T337 659Q337 679 351 693T387 707Q408 707 422 693T437 659Q437 639 423
625T387 611Z" />
<glyph unicode="&#xa9;" horiz-adv-x="804" d="M413 166Q362 166 321 190T256 257T232 350Q232 402 256 443T321 510T413 535Q453 535 489 520T553 477L517 437Q496 460 469 471T414 483Q379 483 351 466T306 418T289 350Q289 313 305 283T350 236T414 218Q443
218 468 229T516 262L552 223Q524 195 489 181T413 166ZM402 -11Q326 -11 261 16T147 93T71 208T44 350Q44 426 71 491T147 606T261 683T402 711Q478 711 543 684T657 607T733 493T760 350Q760 274 733 208T657 93T543 17T402 -11ZM402 32Q467 32 524 56T623 124T690
226T714 350Q714 416 690 474T624 575T524 643T402 668Q337 668 281 644T183 576T116 474T92 350Q92 284 116 226T182 125T281 57T402 32Z" />
<glyph unicode="&#xaa;" horiz-adv-x="408" d="M173 319Q111 319 72 350T33 433Q33 486 74 517T186 548Q215 548 242 542T293 525V571Q293 658 196 658Q169 658 141 651T78 626L55 673Q96 693 132 702T203 711Q276 711 315 677T354 578V326H293V361Q242 319 173
319ZM185 367Q217 367 244 377T293 406V477Q271 491 246 497T188 504Q145 504 119 486T93 435Q93 404 118 386T185 367Z" />
<glyph unicode="&#xab;" horiz-adv-x="598" d="M265 0L31 251L265 501H344L116 253L347 0H265ZM473 0L239 251L473 501H552L324 253L555 0H473Z" />
<glyph unicode="&#xac;" horiz-adv-x="583" d="M462 0V254H67V314H524V0H462Z" />
<glyph unicode="&#xad;" horiz-adv-x="455" d="M49 248V314H398V248H49Z" />
<glyph unicode="&#xae;" horiz-adv-x="489" d="M244 311Q188 311 143 337T72 410T45 512Q45 569 71 614T143 686T244 713Q300 713 345 687T417 615T444 512Q444 456 418 410T346 338T244 311ZM244 345Q292 345 328 366T386 426T407 512Q407 560 386 598T329 657T244
679Q198 679 161 658T103 598T82 513Q82 465 103 427T161 367T244 345ZM178 419V607H252Q282 607 299 592T316 550Q316 533 307 519T281 497L327 419H290L248 490H212V419H178ZM248 579H212V516H247Q282 516 282 548Q282 563 274 571T248 579Z" />
<glyph unicode="&#xaf;" horiz-adv-x="600" d="M158 621V674H442V621H158Z" />
<glyph unicode="&#xb0;" horiz-adv-x="404" d="M202 423Q163 423 131 442T79 495T59 567Q59 607 78 639T130 691T202 711Q242 711 274 692T325 640T345 567Q345 528 326 495T274 443T202 423ZM202 472Q240 472 267 500T295 567Q295 606 268 634T202 662Q164 662
137 634T109 567Q109 528 136 500T202 472Z" />
<glyph unicode="&#xb1;" horiz-adv-x="600" d="M102 -1V59H498V-1H102ZM269 173V349H102V409H269V585H331V409H498V349H331V173H269Z" />
<glyph unicode="&#xb2;" horiz-adv-x="291" d="M26 350V388L162 513Q191 541 202 559T214 598Q214 625 194 642T142 660Q117 660 95 650T46 617L17 652Q46 678 77 691T143 705Q196 705 230 676T265 602Q265 571 250 546T195 483L98 394H270V350H26Z" />
<glyph unicode="&#xb3;" horiz-adv-x="313" d="M151 345Q112 345 78 358T18 397L53 430Q75 408 97 399T151 390Q188 390 210 406T232 450Q232 474 211 488T154 503H123V545H150Q180 545 200 562T220 605Q220 629 200 644T149 660Q121 660 101 651T57 618L22 651Q48
677 81 691T151 706Q204 706 238 679T272 609Q273 583 258 562T215 528Q247 518 266 497T285 446Q285 402 248 374T151 345Z" />
<glyph unicode="&#xb4;" horiz-adv-x="600" d="M236 600L330 716H425L301 600H236Z" />
<glyph unicode="&#xb5;" horiz-adv-x="551" d="M63 -204V501H136V199Q136 132 174 94T276 55Q321 55 356 75T414 133V501H488V0H414V58Q385 24 346 7T257 -10Q222 -10 191 -1T136 27V-204H63Z" />
<glyph unicode="&#xb6;" horiz-adv-x="651" d="M318 0V289H259Q194 289 144 315T66 387T38 494Q38 556 66 602T143 674T258 700H574V0H505V289H386V0H318ZM386 352H505V637H386V352ZM259 352H318V637H259Q192 637 151 598T109 495Q109 430 150 391T259 352Z" />
<glyph unicode="&#xb7;" horiz-adv-x="250" d="M125 231Q104 231 89 246T74 282Q74 303 89 318T125 333Q146 333 161 318T176 282Q176 261 161 246T125 231Z" />
<glyph unicode="&#xb8;" horiz-adv-x="600" d="M280 -228Q211 -228 167 -187L197 -155Q235 -187 280 -187Q310 -187 327 -174T344 -138Q344 -116 326 -104T275 -91H246L272 0H315L300 -55Q344 -57 369 -79T395 -137Q395 -177 363 -202T280 -228Z" />
<glyph unicode="&#xb9;" horiz-adv-x="165" d="M83 350V646L20 620V665L102 700H135V350H83Z" />
<glyph unicode="&#xba;" horiz-adv-x="464" d="M232 317Q178 317 134 343T64 414T38 514Q38 569 64 613T134 684T232 711Q286 711 330 685T400 614T426 514Q426 459 400 415T330 344T232 317ZM232 372Q269 372 299 391T346 442T364 514Q364 554 347 586T299 637T232
656Q195 656 165 637T118 586T100 514Q100 474 117 442T165 391T232 372Z" />
<glyph unicode="&#xbb;" horiz-adv-x="598" d="M333 501L567 250L333 0H254L482 248L251 501H333ZM124 501L358 250L124 0H45L273 248L42 501H124Z" />
<glyph unicode="&#xbc;" horiz-adv-x="603" d="M492 0V88H294V130L486 350H544V132H587V88H544V0H492ZM355 132H492V289L355 132ZM83 350V646L20 620V665L102 700H135V350H83ZM38 1L431 701H493L99 1H38Z" />
<glyph unicode="&#xbd;" horiz-adv-x="637" d="M83 350V646L20 620V665L102 700H135V350H83ZM38 0L431 700H493L99 0H38ZM372 0V38L508 163Q537 191 548 209T560 248Q560 275 540 292T488 310Q463 310 441 300T392 267L363 302Q392 328 423 341T489 355Q542 355
576 326T611 252Q611 221 596 196T541 133L444 44H616V0H372Z" />
<glyph unicode="&#xbe;" horiz-adv-x="697" d="M586 0V88H388V130L580 350H638V132H681V88H638V0H586ZM449 132H586V289L449 132ZM151 345Q112 345 78 358T18 397L53 430Q75 408 97 399T151 390Q188 390 210 406T232 450Q232 474 211 488T154 503H123V545H150Q180
545 200 562T220 605Q220 629 200 644T149 660Q121 660 101 651T57 618L22 651Q48 677 81 691T151 706Q204 706 238 679T272 609Q273 583 258 562T215 528Q247 518 266 497T285 446Q285 402 248 374T151 345ZM132 0L525 700H587L193 0H132Z" />
<glyph unicode="&#xbf;" horiz-adv-x="506" d="M318 298Q320 252 313 219T287 159T236 109L192 78Q148 46 131 20T113 -40Q113 -71 132 -95T184 -133T258 -148Q307 -148 350 -125T428 -58L486 -96Q457 -134 421 -160T342 -200T254 -214Q193 -214 145 -192T68 -130T40
-41Q40 -7 50 20T86 74T157 131L191 155Q228 180 243 214T254 298H318ZM286 503Q307 503 322 488T337 452Q337 431 322 416T286 401Q265 401 250 416T235 452Q235 473 250 488T286 503Z" />
<glyph unicode="&#xc0;" horiz-adv-x="679" d="M4 0L294 700H387L675 0H591L503 220H173L84 0H4ZM200 286H476L338 629L200 286ZM330 799L207 915H303L395 799H330Z" />
<glyph unicode="&#xc1;" horiz-adv-x="679" d="M4 0L294 700H387L675 0H591L503 220H173L84 0H4ZM200 286H476L338 629L200 286ZM276 799L370 915H465L341 799H276Z" />
<glyph unicode="&#xc2;" horiz-adv-x="679" d="M4 0L294 700H387L675 0H591L503 220H173L84 0H4ZM200 286H476L338 629L200 286ZM423 795L339 875L256 795H196L300 916H380L484 795H423Z" />
<glyph unicode="&#xc3;" horiz-adv-x="679" d="M4 0L294 700H387L675 0H591L503 220H173L84 0H4ZM200 286H476L338 629L200 286ZM224 794L172 804Q194 904 266 904Q293 904 318 891T367 863T411 849Q428 849 438 862T456 906L507 896Q497 846 473 821T413 796Q387
796 362 810T313 837T268 851Q250 851 240 838T224 794Z" />
<glyph unicode="&#xc4;" horiz-adv-x="679" d="M4 0L294 700H387L675 0H591L503 220H173L84 0H4ZM200 286H476L338 629L200 286ZM253 810Q232 810 218 824T203 858Q203 878 217 892T253 906Q274 906 288 892T303 858Q303 838 289 824T253 810ZM427 810Q406 810
392 824T377 858Q377 878 391 892T427 906Q448 906 462 892T477 858Q477 838 463 824T427 810Z" />
<glyph unicode="&#xc5;" horiz-adv-x="679" d="M4 0L294 700H387L675 0H591L503 220H173L84 0H4ZM200 286H476L338 629L200 286ZM340 782Q309 782 284 797T243 837T228 893Q228 924 243 949T283 989T340 1004Q371 1004 396 989T437 949T452 893Q452 863 437 838T397
797T340 782ZM340 823Q369 823 389 843T410 893Q410 922 390 942T340 963Q311 963 291 943T270 893Q270 864 290 844T340 823Z" />
<glyph unicode="&#xc6;" horiz-adv-x="953" d="M4 0L295 700H919V632H418L517 387H778V320H544L645 68H919V0H591L503 220H173L84 0H4ZM200 286H476L339 628L200 286Z" />
<glyph unicode="&#xc7;" horiz-adv-x="722" d="M393 -228Q324 -228 280 -187L310 -155Q348 -187 393 -187Q423 -187 440 -174T457 -138Q457 -116 439 -104T388 -91H359L382 -10Q310 -5 249 24T141 101T70 213T44 350Q44 426 71 491T149 606T265 683T407 711Q462
711 512 698T606 659T684 596L633 542Q592 589 532 614T407 640Q346 640 294 618T204 557T144 465T122 350Q122 289 143 236T204 144T295 82T409 60Q474 60 533 85T632 156L682 104Q633 52 566 23T425 -11L413 -55Q457 -57 482 -79T508 -137Q508 -177 476 -202T393
-228Z" />
<glyph unicode="&#xc8;" horiz-adv-x="616" d="M77 0V700H578V632H154V387H431V320H154V68H582V0H77ZM330 799L207 915H303L395 799H330Z" />
<glyph unicode="&#xc9;" horiz-adv-x="616" d="M77 0V700H578V632H154V387H431V320H154V68H582V0H77ZM276 799L370 915H465L341 799H276Z" />
<glyph unicode="&#xca;" horiz-adv-x="616" d="M77 0V700H578V632H154V387H431V320H154V68H582V0H77ZM423 795L339 875L256 795H196L300 916H380L484 795H423Z" />
<glyph unicode="&#xcb;" horiz-adv-x="616" d="M77 0V700H578V632H154V387H431V320H154V68H582V0H77ZM253 810Q232 810 218 824T203 858Q203 878 217 892T253 906Q274 906 288 892T303 858Q303 838 289 824T253 810ZM427 810Q406 810 392 824T377 858Q377 878
391 892T427 906Q448 906 462 892T477 858Q477 838 463 824T427 810Z" />
<glyph unicode="&#xcc;" horiz-adv-x="231" d="M77 0V700H154V0H77ZM106 799L-17 915H79L171 799H106Z" />
<glyph unicode="&#xcd;" horiz-adv-x="231" d="M77 0V700H154V0H77ZM52 799L146 915H241L117 799H52Z" />
<glyph unicode="&#xce;" horiz-adv-x="231" d="M77 0V700H154V0H77ZM199 795L115 875L32 795H-28L76 916H156L260 795H199Z" />
<glyph unicode="&#xcf;" horiz-adv-x="231" d="M77 0V700H154V0H77ZM29 810Q8 810 -6 824T-21 858Q-21 878 -7 892T29 906Q50 906 64 892T79 858Q79 838 65 824T29 810ZM203 810Q182 810 168 824T153 858Q153 878 167 892T203 906Q224 906 238 892T253 858Q253
838 239 824T203 810Z" />
<glyph unicode="&#xd0;" horiz-adv-x="744" d="M100 0V317H13V383H100V700H331Q411 700 478 674T594 601T671 490T699 350Q699 274 672 210T596 99T479 26T331 0H100ZM177 70H335Q396 70 448 91T539 150T599 239T621 350Q621 410 600 461T539 550T448 609T335
630H177V383H366V317H177V70Z" />
<glyph unicode="&#xd1;" horiz-adv-x="725" d="M77 0V700H154L575 132V700H648V0H580L150 583V0H77ZM246 794L194 804Q216 904 288 904Q315 904 340 891T389 863T433 849Q450 849 460 862T478 906L529 896Q519 846 495 821T435 796Q409 796 384 810T335 837T290
851Q272 851 262 838T246 794Z" />
<glyph unicode="&#xd2;" horiz-adv-x="809" d="M405 -11Q329 -11 264 16T149 93T72 208T44 350Q44 426 71 491T148 606T263 683T405 711Q480 711 545 684T660 607T737 492T765 350Q765 274 738 209T661 94T546 17T405 -11ZM405 60Q465 60 516 82T605 143T665 236T687
350Q687 412 666 464T606 556T516 618T405 640Q345 640 294 618T204 557T144 465T122 351Q122 289 143 236T203 144T293 82T405 60ZM395 799L272 915H368L460 799H395Z" />
<glyph unicode="&#xd3;" horiz-adv-x="809" d="M405 -11Q329 -11 264 16T149 93T72 208T44 350Q44 426 71 491T148 606T263 683T405 711Q480 711 545 684T660 607T737 492T765 350Q765 274 738 209T661 94T546 17T405 -11ZM405 60Q465 60 516 82T605 143T665 236T687
350Q687 412 666 464T606 556T516 618T405 640Q345 640 294 618T204 557T144 465T122 351Q122 289 143 236T203 144T293 82T405 60ZM341 799L435 915H530L406 799H341Z" />
<glyph unicode="&#xd4;" horiz-adv-x="809" d="M405 -11Q329 -11 264 16T149 93T72 208T44 350Q44 426 71 491T148 606T263 683T405 711Q480 711 545 684T660 607T737 492T765 350Q765 274 738 209T661 94T546 17T405 -11ZM405 60Q465 60 516 82T605 143T665 236T687
350Q687 412 666 464T606 556T516 618T405 640Q345 640 294 618T204 557T144 465T122 351Q122 289 143 236T203 144T293 82T405 60ZM488 795L404 875L321 795H261L365 916H445L549 795H488Z" />
<glyph unicode="&#xd5;" horiz-adv-x="809" d="M405 -11Q329 -11 264 16T149 93T72 208T44 350Q44 426 71 491T148 606T263 683T405 711Q480 711 545 684T660 607T737 492T765 350Q765 274 738 209T661 94T546 17T405 -11ZM405 60Q465 60 516 82T605 143T665 236T687
350Q687 412 666 464T606 556T516 618T405 640Q345 640 294 618T204 557T144 465T122 351Q122 289 143 236T203 144T293 82T405 60ZM289 794L237 804Q259 904 331 904Q358 904 383 891T432 863T476 849Q493 849 503 862T521 906L572 896Q562 846 538 821T478 796Q452
796 427 810T378 837T333 851Q315 851 305 838T289 794Z" />
<glyph unicode="&#xd6;" horiz-adv-x="809" d="M405 -11Q329 -11 264 16T149 93T72 208T44 350Q44 426 71 491T148 606T263 683T405 711Q480 711 545 684T660 607T737 492T765 350Q765 274 738 209T661 94T546 17T405 -11ZM405 60Q465 60 516 82T605 143T665 236T687
350Q687 412 666 464T606 556T516 618T405 640Q345 640 294 618T204 557T144 465T122 351Q122 289 143 236T203 144T293 82T405 60ZM318 810Q297 810 283 824T268 858Q268 878 282 892T318 906Q339 906 353 892T368 858Q368 838 354 824T318 810ZM492 810Q471 810
457 824T442 858Q442 878 456 892T492 906Q513 906 527 892T542 858Q542 838 528 824T492 810Z" />
<glyph unicode="&#xd7;" horiz-adv-x="600" d="M152 162L115 202L261 358L114 516L152 557L300 400L447 557L486 517L338 360L486 202L446 161L299 318L152 162Z" />
<glyph unicode="&#xd8;" horiz-adv-x="809" d="M405 -11Q347 -11 294 6T196 54L151 0H72L149 93Q100 142 72 208T44 350Q44 426 71 491T148 606T263 683T405 711Q462 711 514 695T609 649L651 700H732L657 610Q707 561 736 494T765 350Q765 274 738 209T661 94T546
17T405 -11ZM197 151L562 593Q529 616 489 628T405 640Q345 640 294 618T204 557T144 465T122 350Q122 292 142 241T197 151ZM405 60Q465 60 516 82T605 143T665 236T687 350Q687 410 667 462T610 552L243 110Q277 87 318 74T405 60Z" />
<glyph unicode="&#xd9;" horiz-adv-x="704" d="M352 -11Q263 -11 198 26T98 133T63 296V700H140V296Q140 224 166 171T240 89T352 60Q417 60 464 89T538 171T564 296V700H641V296Q641 202 606 133T506 27T352 -11ZM342 799L219 915H315L407 799H342Z" />
<glyph unicode="&#xda;" horiz-adv-x="704" d="M352 -11Q263 -11 198 26T98 133T63 296V700H140V296Q140 224 166 171T240 89T352 60Q417 60 464 89T538 171T564 296V700H641V296Q641 202 606 133T506 27T352 -11ZM288 799L382 915H477L353 799H288Z" />
<glyph unicode="&#xdb;" horiz-adv-x="704" d="M352 -11Q263 -11 198 26T98 133T63 296V700H140V296Q140 224 166 171T240 89T352 60Q417 60 464 89T538 171T564 296V700H641V296Q641 202 606 133T506 27T352 -11ZM435 795L351 875L268 795H208L312 916H392L496 795H435Z" />
<glyph unicode="&#xdc;" horiz-adv-x="704" d="M352 -11Q263 -11 198 26T98 133T63 296V700H140V296Q140 224 166 171T240 89T352 60Q417 60 464 89T538 171T564 296V700H641V296Q641 202 606 133T506 27T352 -11ZM265 810Q244 810 230 824T215 858Q215 878 229
892T265 906Q286 906 300 892T315 858Q315 838 301 824T265 810ZM439 810Q418 810 404 824T389 858Q389 878 403 892T439 906Q460 906 474 892T489 858Q489 838 475 824T439 810Z" />
<glyph unicode="&#xdd;" horiz-adv-x="639" d="M281 0V285L3 700H93L322 353L550 700H637L358 282V0H281ZM256 799L350 915H445L321 799H256Z" />
<glyph unicode="&#xde;" horiz-adv-x="637" d="M77 0V700H154V559H383Q445 559 493 532T570 457T598 349Q598 290 570 243T494 169T383 142H154V0H77ZM154 209H375Q416 209 449 227T501 277T520 349Q520 390 501 422T449 472T375 490H154V209Z" />
<glyph unicode="&#xdf;" horiz-adv-x="628" d="M424 -11Q311 -11 228 70L273 113Q339 46 423 46Q475 46 506 67T537 124Q537 158 519 178T454 213L374 239Q314 259 290 282T265 343Q265 378 284 400T333 437T391 467T439 501T459 551Q459 595 417 622T307 649Q224
649 180 604T136 474V0H63V472Q63 585 127 648T305 711Q374 711 424 692T503 639T531 557Q531 516 512 490T463 446T405 415T357 388T337 352Q337 333 351 321T405 295L482 269Q548 247 577 215T606 131Q606 67 556 28T424 -11Z" />
<glyph unicode="&#xe0;" horiz-adv-x="516" d="M221 -9Q166 -9 125 10T60 63T36 142Q36 213 90 254T236 295Q317 295 383 261V327Q383 387 349 417T250 448Q213 448 176 438T93 404L65 461Q119 487 165 499T257 511Q352 511 403 466T455 337V0H383V49Q349 20 309
6T221 -9ZM107 144Q107 102 142 76T234 49Q279 49 316 63T383 107V201Q352 222 317 231T238 241Q178 241 143 215T107 144ZM495 600L372 716H468L560 600H495Z" />
<glyph unicode="&#xe1;" horiz-adv-x="516" d="M221 -9Q166 -9 125 10T60 63T36 142Q36 213 90 254T236 295Q317 295 383 261V327Q383 387 349 417T250 448Q213 448 176 438T93 404L65 461Q119 487 165 499T257 511Q352 511 403 466T455 337V0H383V49Q349 20 309
6T221 -9ZM107 144Q107 102 142 76T234 49Q279 49 316 63T383 107V201Q352 222 317 231T238 241Q178 241 143 215T107 144ZM441 600L535 716H630L506 600H441Z" />
<glyph unicode="&#xe2;" horiz-adv-x="516" d="M221 -9Q166 -9 125 10T60 63T36 142Q36 213 90 254T236 295Q317 295 383 261V327Q383 387 349 417T250 448Q213 448 176 438T93 404L65 461Q119 487 165 499T257 511Q352 511 403 466T455 337V0H383V49Q349 20 309
6T221 -9ZM107 144Q107 102 142 76T234 49Q279 49 316 63T383 107V201Q352 222 317 231T238 241Q178 241 143 215T107 144ZM588 596L504 676L421 596H361L465 717H545L649 596H588Z" />
<glyph unicode="&#xe3;" horiz-adv-x="516" d="M221 -9Q166 -9 125 10T60 63T36 142Q36 213 90 254T236 295Q317 295 383 261V327Q383 387 349 417T250 448Q213 448 176 438T93 404L65 461Q119 487 165 499T257 511Q352 511 403 466T455 337V0H383V49Q349 20 309
6T221 -9ZM107 144Q107 102 142 76T234 49Q279 49 316 63T383 107V201Q352 222 317 231T238 241Q178 241 143 215T107 144ZM389 595L337 605Q359 705 431 705Q458 705 483 692T532 664T576 650Q593 650 603 663T621 707L672 697Q662 647 638 622T578 597Q552 597
527 611T478 638T433 652Q415 652 405 639T389 595Z" />
<glyph unicode="&#xe4;" horiz-adv-x="516" d="M221 -9Q166 -9 125 10T60 63T36 142Q36 213 90 254T236 295Q317 295 383 261V327Q383 387 349 417T250 448Q213 448 176 438T93 404L65 461Q119 487 165 499T257 511Q352 511 403 466T455 337V0H383V49Q349 20 309
6T221 -9ZM107 144Q107 102 142 76T234 49Q279 49 316 63T383 107V201Q352 222 317 231T238 241Q178 241 143 215T107 144ZM418 611Q397 611 383 625T368 659Q368 679 382 693T418 707Q439 707 453 693T468 659Q468 639 454 625T418 611ZM592 611Q571 611 557 625T542
659Q542 679 556 693T592 707Q613 707 627 693T642 659Q642 639 628 625T592 611Z" />
<glyph unicode="&#xe5;" horiz-adv-x="516" d="M221 -9Q166 -9 125 10T60 63T36 142Q36 213 90 254T236 295Q317 295 383 261V327Q383 387 349 417T250 448Q213 448 176 438T93 404L65 461Q119 487 165 499T257 511Q352 511 403 466T455 337V0H383V49Q349 20 309
6T221 -9ZM107 144Q107 102 142 76T234 49Q279 49 316 63T383 107V201Q352 222 317 231T238 241Q178 241 143 215T107 144ZM505 583Q474 583 449 598T408 638T393 694Q393 725 408 750T448 790T505 805Q536 805 561 790T602 750T617 694Q617 664 602 639T562 598T505
583ZM505 624Q534 624 554 644T575 694Q575 723 555 743T505 764Q476 764 456 744T435 694Q435 665 455 645T505 624Z" />
<glyph unicode="&#xe6;" horiz-adv-x="907" d="M221 -9Q166 -9 125 10T60 63T37 142Q37 212 92 253T239 295Q319 295 383 263V327Q383 387 349 417T250 448Q213 448 176 438T93 404L65 461Q119 487 165 499T257 511Q328 511 374 486T440 413Q473 458 522 483T630
509Q697 509 750 475T835 382T867 251V228H456Q462 179 487 140T554 79T644 56Q683 56 720 68T782 102L828 53Q786 22 741 7T641 -9Q577 -9 524 18T435 92Q394 43 340 17T221 -9ZM458 287H793Q787 332 764 367T705 423T628 444Q585 444 549 424T489 369T458 287ZM234
49Q286 49 329 71T408 137Q401 152 396 168T387 201Q356 222 321 231T241 241Q181 241 145 215T108 144Q108 102 143 76T234 49Z" />
<glyph unicode="&#xe7;" horiz-adv-x="513" d="M282 -228Q213 -228 169 -187L199 -155Q237 -187 282 -187Q312 -187 329 -174T346 -138Q346 -116 328 -104T277 -91H248L272 -8Q206 -2 154 33T71 125T40 251Q40 324 74 382T166 476T295 511Q350 511 401 491T491
432L444 378Q414 410 376 426T296 443Q245 443 204 418T138 349T113 251Q113 197 137 153T204 84T297 58Q338 58 374 74T443 121L489 71Q453 37 409 17T315 -8L302 -55Q346 -57 371 -79T397 -137Q397 -177 365 -202T282 -228Z" />
<glyph unicode="&#xe8;" horiz-adv-x="564" d="M298 -9Q226 -9 168 25T75 119T40 251Q40 323 73 381T162 474T287 509Q354 509 407 475T492 382T524 251V228H113Q119 179 144 140T211 79T301 56Q340 56 377 68T439 102L485 53Q443 22 398 7T298 -9ZM115 287H450Q444
332 421 367T362 423T285 444Q242 444 206 424T146 369T115 287ZM532 600L409 716H505L597 600H532Z" />
<glyph unicode="&#xe9;" horiz-adv-x="564" d="M298 -9Q226 -9 168 25T75 119T40 251Q40 323 73 381T162 474T287 509Q354 509 407 475T492 382T524 251V228H113Q119 179 144 140T211 79T301 56Q340 56 377 68T439 102L485 53Q443 22 398 7T298 -9ZM115 287H450Q444
332 421 367T362 423T285 444Q242 444 206 424T146 369T115 287ZM478 600L572 716H667L543 600H478Z" />
<glyph unicode="&#xea;" horiz-adv-x="564" d="M298 -9Q226 -9 168 25T75 119T40 251Q40 323 73 381T162 474T287 509Q354 509 407 475T492 382T524 251V228H113Q119 179 144 140T211 79T301 56Q340 56 377 68T439 102L485 53Q443 22 398 7T298 -9ZM115 287H450Q444
332 421 367T362 423T285 444Q242 444 206 424T146 369T115 287ZM625 596L541 676L458 596H398L502 717H582L686 596H625Z" />
<glyph unicode="&#xeb;" horiz-adv-x="564" d="M298 -9Q226 -9 168 25T75 119T40 251Q40 323 73 381T162 474T287 509Q354 509 407 475T492 382T524 251V228H113Q119 179 144 140T211 79T301 56Q340 56 377 68T439 102L485 53Q443 22 398 7T298 -9ZM115 287H450Q444
332 421 367T362 423T285 444Q242 444 206 424T146 369T115 287ZM455 611Q434 611 420 625T405 659Q405 679 419 693T455 707Q476 707 490 693T505 659Q505 639 491 625T455 611ZM629 611Q608 611 594 625T579 659Q579 679 593 693T629 707Q650 707 664 693T679
659Q679 639 665 625T629 611Z" />
<glyph unicode="&#xec;" horiz-adv-x="200" d="M63 0V501H137V0H63ZM90 600L-33 716H63L155 600H90Z" />
<glyph unicode="&#xed;" horiz-adv-x="200" d="M63 0V501H137V0H63ZM36 600L130 716H225L101 600H36Z" />
<glyph unicode="&#xee;" horiz-adv-x="200" d="M63 0V501H137V0H63ZM183 596L99 676L16 596H-44L60 717H140L244 596H183Z" />
<glyph unicode="&#xef;" horiz-adv-x="200" d="M63 0V501H137V0H63ZM13 611Q-8 611 -22 625T-37 659Q-37 679 -23 693T13 707Q34 707 48 693T63 659Q63 639 49 625T13 611ZM187 611Q166 611 152 625T137 659Q137 679 151 693T187 707Q208 707 222 693T237 659Q237
639 223 625T187 611Z" />
<glyph unicode="&#xf0;" horiz-adv-x="601" d="M290 -10Q220 -10 164 24T74 116T41 246Q41 297 59 341T111 419T189 471T285 490Q347 490 395 462T472 384Q462 446 435 499T365 592L263 528L232 574L319 628Q296 645 269 657T212 677L242 731Q280 719 314 703T378
664L488 733L519 687L422 627Q484 567 516 483T548 292Q548 201 516 133T426 28T290 -10ZM292 57Q342 57 382 81T446 148T470 242Q470 294 447 335T383 401T292 426Q241 426 201 402T137 336T113 242Q113 190 136 148T200 82T292 57Z" />
<glyph unicode="&#xf1;" horiz-adv-x="549" d="M63 0V501H137V442Q196 511 295 511Q352 511 395 487T463 419T488 317V0H415V302Q415 369 378 407T275 446Q230 446 195 426T137 369V0H63ZM416 595L364 605Q386 705 458 705Q485 705 510 692T559 664T603 650Q620
650 630 663T648 707L699 697Q689 647 665 622T605 597Q579 597 554 611T505 638T460 652Q442 652 432 639T416 595Z" />
<glyph unicode="&#xf2;" horiz-adv-x="592" d="M296 -10Q225 -10 167 24T74 118T40 250Q40 323 74 382T166 475T296 510Q368 510 426 476T518 382T552 250Q552 177 518 118T426 25T296 -10ZM296 56Q347 56 388 82T454 152T479 250Q479 305 455 348T389 418T296
444Q245 444 204 418T138 349T113 250Q113 196 137 152T203 82T296 56ZM542 600L419 716H515L607 600H542Z" />
<glyph unicode="&#xf3;" horiz-adv-x="592" d="M296 -10Q225 -10 167 24T74 118T40 250Q40 323 74 382T166 475T296 510Q368 510 426 476T518 382T552 250Q552 177 518 118T426 25T296 -10ZM296 56Q347 56 388 82T454 152T479 250Q479 305 455 348T389 418T296
444Q245 444 204 418T138 349T113 250Q113 196 137 152T203 82T296 56ZM488 600L582 716H677L553 600H488Z" />
<glyph unicode="&#xf4;" horiz-adv-x="592" d="M296 -10Q225 -10 167 24T74 118T40 250Q40 323 74 382T166 475T296 510Q368 510 426 476T518 382T552 250Q552 177 518 118T426 25T296 -10ZM296 56Q347 56 388 82T454 152T479 250Q479 305 455 348T389 418T296
444Q245 444 204 418T138 349T113 250Q113 196 137 152T203 82T296 56ZM635 596L551 676L468 596H408L512 717H592L696 596H635Z" />
<glyph unicode="&#xf5;" horiz-adv-x="592" d="M296 -10Q225 -10 167 24T74 118T40 250Q40 323 74 382T166 475T296 510Q368 510 426 476T518 382T552 250Q552 177 518 118T426 25T296 -10ZM296 56Q347 56 388 82T454 152T479 250Q479 305 455 348T389 418T296
444Q245 444 204 418T138 349T113 250Q113 196 137 152T203 82T296 56ZM436 595L384 605Q406 705 478 705Q505 705 530 692T579 664T623 650Q640 650 650 663T668 707L719 697Q709 647 685 622T625 597Q599 597 574 611T525 638T480 652Q462 652 452 639T436 595Z"
/>
<glyph unicode="&#xf6;" horiz-adv-x="592" d="M296 -10Q225 -10 167 24T74 118T40 250Q40 323 74 382T166 475T296 510Q368 510 426 476T518 382T552 250Q552 177 518 118T426 25T296 -10ZM296 56Q347 56 388 82T454 152T479 250Q479 305 455 348T389 418T296
444Q245 444 204 418T138 349T113 250Q113 196 137 152T203 82T296 56ZM465 611Q444 611 430 625T415 659Q415 679 429 693T465 707Q486 707 500 693T515 659Q515 639 501 625T465 611ZM639 611Q618 611 604 625T589 659Q589 679 603 693T639 707Q660 707 674 693T689
659Q689 639 675 625T639 611Z" />
<glyph unicode="&#xf7;" horiz-adv-x="600" d="M300 489Q278 489 263 504T247 542Q247 564 262 579T300 595Q322 595 337 580T353 542Q353 520 338 505T300 489ZM300 121Q278 121 263 136T247 174Q247 196 262 211T300 227Q322 227 337 212T353 174Q353 152 338
137T300 121ZM102 328V388H498V328H102Z" />
<glyph unicode="&#xf8;" horiz-adv-x="592" d="M296 -10Q255 -10 218 2T149 36L119 0H53L111 69Q78 104 59 150T40 251Q40 324 74 383T166 476T296 511Q337 511 373 499T441 466L471 501H537L480 433Q513 398 532 351T551 251Q551 178 517 119T425 25T296 -10ZM156
124L398 413Q376 428 351 436T296 445Q245 445 204 419T138 350T113 251Q113 214 124 182T156 124ZM296 56Q347 56 388 82T454 152T478 251Q478 288 467 320T435 378L193 89Q215 73 241 65T296 56Z" />
<glyph unicode="&#xf9;" horiz-adv-x="549" d="M255 -10Q198 -10 154 14T86 82T61 184V501H134V199Q134 132 172 94T274 55Q319 55 354 75T412 133V501H486V0H412V58Q353 -10 255 -10ZM520 600L397 716H493L585 600H520Z" />
<glyph unicode="&#xfa;" horiz-adv-x="549" d="M255 -10Q198 -10 154 14T86 82T61 184V501H134V199Q134 132 172 94T274 55Q319 55 354 75T412 133V501H486V0H412V58Q353 -10 255 -10ZM466 600L560 716H655L531 600H466Z" />
<glyph unicode="&#xfb;" horiz-adv-x="549" d="M255 -10Q198 -10 154 14T86 82T61 184V501H134V199Q134 132 172 94T274 55Q319 55 354 75T412 133V501H486V0H412V58Q353 -10 255 -10ZM613 596L529 676L446 596H386L490 717H570L674 596H613Z" />
<glyph unicode="&#xfc;" horiz-adv-x="549" d="M255 -10Q198 -10 154 14T86 82T61 184V501H134V199Q134 132 172 94T274 55Q319 55 354 75T412 133V501H486V0H412V58Q353 -10 255 -10ZM443 611Q422 611 408 625T393 659Q393 679 407 693T443 707Q464 707 478 693T493
659Q493 639 479 625T443 611ZM617 611Q596 611 582 625T567 659Q567 679 581 693T617 707Q638 707 652 693T667 659Q667 639 653 625T617 611Z" />
<glyph unicode="&#xfd;" horiz-adv-x="510" d="M84 -214Q70 -214 58 -213T37 -209V-142Q54 -146 79 -146Q145 -146 179 -68L209 1L5 501H87L249 90L424 501H504L254 -78Q233 -126 209 -156T155 -200T84 -214ZM442 600L536 716H631L507 600H442Z" />
<glyph unicode="&#xfe;" horiz-adv-x="591" d="M63 -204V700L137 717V448Q201 509 298 509Q369 509 426 475T516 382T550 251Q550 178 517 120T426 27T297 -8Q253 -8 212 7T137 50V-204H63ZM291 444Q244 444 204 426T137 374V126Q163 94 204 76T291 57Q344 57
386 82T452 151T477 250Q477 305 453 349T386 418T291 444Z" />
<glyph unicode="&#xff;" horiz-adv-x="510" d="M84 -214Q70 -214 58 -213T37 -209V-142Q54 -146 79 -146Q145 -146 179 -68L209 1L5 501H87L249 90L424 501H504L254 -78Q233 -126 209 -156T155 -200T84 -214ZM419 611Q398 611 384 625T369 659Q369 679 383 693T419
707Q440 707 454 693T469 659Q469 639 455 625T419 611ZM593 611Q572 611 558 625T543 659Q543 679 557 693T593 707Q614 707 628 693T643 659Q643 639 629 625T593 611Z" />
<glyph unicode="&#x2013;" horiz-adv-x="547" d="M49 248V314H498V248H49Z" />
<glyph unicode="&#x2014;" horiz-adv-x="697" d="M49 248V314H648V248H49Z" />
<glyph unicode="&#x2018;" horiz-adv-x="250" d="M201 719L143 508H63L143 719H201Z" />
<glyph unicode="&#x2019;" horiz-adv-x="250" d="M63 508L121 719H201L121 508H63Z" />
<glyph unicode="&#x201a;" horiz-adv-x="250" d="M44 -137L102 74H182L102 -137H44Z" />
<glyph unicode="&#x201c;" horiz-adv-x="386" d="M201 719L143 508H63L143 719H201ZM337 719L279 508H199L279 719H337Z" />
<glyph unicode="&#x201d;" horiz-adv-x="386" d="M199 508L257 719H337L257 508H199ZM63 508L121 719H201L121 508H63Z" />
<glyph unicode="&#x201e;" horiz-adv-x="386" d="M180 -137L238 74H318L238 -137H180ZM44 -137L102 74H182L102 -137H44Z" />
<glyph unicode="&#x2022;" horiz-adv-x="328" d="M163 252Q136 252 113 265T77 302T63 352Q63 380 76 403T113 440T163 454Q191 454 214 440T251 403T265 352Q265 325 252 302T215 266T163 252Z" />
<glyph unicode="&#x2039;" horiz-adv-x="389" d="M265 0L31 251L265 501H344L116 253L347 0H265Z" />
<glyph unicode="&#x203a;" horiz-adv-x="389" d="M124 501L358 250L124 0H45L273 248L42 501H124Z" />
</font>
</defs>
</svg>
